<?xml version="1.0" standalone="no"?>
<!DOCTYPE svg PUBLIC "-//W3C//DTD SVG 1.1//EN" "http://www.w3.org/Graphics/SVG/1.1/DTD/svg11.dtd" >
<svg xmlns="http://www.w3.org/2000/svg">
<metadata>Generated by IcoMoon</metadata>
<defs>
<font id="icomoon" horiz-adv-x="1024">
<font-face units-per-em="1024" ascent="960" descent="-64" />
<missing-glyph horiz-adv-x="1024" />
<glyph unicode="&#x20;" horiz-adv-x="512" d="" />
<glyph unicode="&#xe800;" glyph-name="mail" d="M951.296 100.864v438.272q-18.432-20.48-39.936-37.888-152.576-116.736-243.712-192.512-28.672-24.576-47.104-38.912t-49.152-27.648-58.368-13.312h-2.048q-26.624 0-58.368 13.312t-49.152 27.648-47.104 38.912q-90.112 75.776-243.712 192.512-21.504 17.408-39.936 37.888v-438.272q0-8.192 6.144-13.312t12.288-5.12h841.728q7.168 0 12.288 5.12t6.144 13.312zM951.296 700.928v14.336t-1.024 7.168-1.024 7.168-3.072 5.12-5.12 4.096-8.192 2.048h-841.728q-7.168 0-12.288-6.144t-6.144-12.288q0-96.256 83.968-162.816 110.592-86.016 229.376-181.248 4.096-2.048 20.48-16.384t25.6-21.504 25.6-17.408 28.672-16.384 24.576-5.12h2.048q11.264 0 24.576 5.12t28.672 16.384 25.6 17.408 25.6 21.504 20.48 16.384q118.784 95.232 229.376 181.248 30.72 24.576 57.344 66.56t26.624 74.752zM1024 722.432v-621.568q0-37.888-26.624-64.512t-64.512-27.648h-841.728q-36.864 0-64.512 27.648t-26.624 64.512v621.568q0 37.888 26.624 64.512t64.512 26.624h841.728q37.888 0 64.512-26.624t26.624-64.512z" />
<glyph unicode="&#xe801;" glyph-name="mail-alt" d="M1024 554.496v-453.632q0-37.888-26.624-64.512t-64.512-27.648h-841.728q-36.864 0-64.512 27.648t-26.624 64.512v453.632q25.6-28.672 57.344-50.176 206.848-140.288 284.672-196.608 32.768-24.576 52.224-37.888t54.272-27.648 62.464-13.312h2.048q28.672 0 62.464 13.312t54.272 27.648 52.224 37.888q97.28 69.632 284.672 196.608 32.768 22.528 57.344 50.176zM1024 722.432q0-45.056-27.648-86.016t-69.632-70.656q-215.040-149.504-268.288-185.344-5.12-4.096-23.552-17.408t-30.72-22.528-29.696-18.432-33.792-15.36-27.648-5.12h-2.048q-12.288 0-27.648 5.12t-33.792 15.36-29.696 18.432-30.72 22.528-23.552 17.408q-52.224 35.84-150.528 103.424t-116.736 81.92q-35.84 23.552-66.56 65.536t-31.744 78.848q0 44.032 23.552 73.728t67.584 29.696h841.728q36.864 0 63.488-26.624t27.648-64.512z" />
<glyph unicode="&#xe802;" glyph-name="mail-squared" horiz-adv-x="878" d="M712.704 887.296q68.608 0 116.736-49.152t48.128-115.712v-548.864q0-67.584-48.128-115.712t-116.736-49.152h-547.84q-68.608 0-116.736 49.152t-48.128 115.712v548.864q0 67.584 48.128 115.712t116.736 49.152h547.84zM731.136 283.136v249.856q-17.408-20.48-35.84-31.744-19.456-12.288-75.776-49.152t-87.040-56.32q-56.32-38.912-93.184-38.912t-94.208 38.912q-26.624 18.432-80.896 53.248t-80.896 52.224q-7.168 5.12-19.456 16.384t-17.408 15.36v-249.856q0-22.528 16.384-38.912t37.888-15.36h476.16q22.528 0 38.912 15.36t15.36 38.912zM731.136 610.816q0 23.552-15.36 39.936t-38.912 16.384h-476.16q-22.528 0-37.888-15.36t-16.384-38.912q0-21.504 17.408-44.032t38.912-36.864q26.624-18.432 77.824-51.2t74.752-47.104q1.024-1.024 9.216-6.144t12.288-8.192 11.264-7.168 14.336-8.192 12.288-5.12 12.288-4.096 12.288-2.048 11.264 2.048 13.312 4.096 12.288 5.12 13.312 8.192 11.264 7.168 12.288 8.192 10.24 6.144l152.576 99.328q19.456 13.312 37.888 35.84t17.408 41.984z" />
<glyph unicode="&#xe803;" glyph-name="rss" horiz-adv-x="804" d="M219.136 192q0-46.080-31.744-77.824t-77.824-31.744-77.824 31.744-31.744 77.824 31.744 77.824 77.824 31.744 77.824-31.744 31.744-77.824zM512 121.344q1.024-15.36-9.216-26.624-11.264-12.288-27.648-12.288h-76.8q-14.336 0-24.576 9.216t-11.264 23.552q-12.288 131.072-105.472 224.256t-224.256 105.472q-14.336 1.024-23.552 11.264t-9.216 24.576v76.8q0 16.384 12.288 26.624 9.216 10.24 24.576 10.24h3.072q91.136-7.168 174.080-46.080t148.48-103.424q64.512-64.512 103.424-148.48t46.080-175.104zM804.864 120.32q1.024-15.36-10.24-26.624-10.24-11.264-26.624-11.264h-81.92q-14.336 0-25.6 10.24t-11.264 23.552q-6.144 122.88-57.344 233.472t-132.096 192.512-192.512 132.096-232.448 58.368q-14.336 0-24.576 11.264t-10.24 24.576v81.92q0 15.36 11.264 26.624 10.24 10.24 25.6 10.24h1.024q150.528-8.192 286.72-68.608t243.712-167.936q106.496-106.496 167.936-243.712t68.608-286.72z" />
<glyph unicode="&#xe804;" glyph-name="rss-squared" horiz-adv-x="878" d="M292.864 228.864q0 29.696-21.504 51.2t-52.224 21.504-51.2-21.504-21.504-51.2 21.504-52.224 51.2-21.504 52.224 21.504 21.504 52.224zM493.568 174.592q-8.192 133.12-101.376 226.304t-226.304 101.376q-8.192 1.024-14.336-5.12t-5.12-13.312v-72.704q0-8.192 5.12-13.312t12.288-5.12q88.064-6.144 150.528-69.632t68.608-150.528q1.024-7.168 6.144-12.288t12.288-5.12h73.728q7.168 0 13.312 6.144t5.12 13.312zM712.704 174.592q-3.072 88.064-31.744 169.984t-79.872 148.48-117.76 116.736-148.48 79.872-169.984 31.744q-8.192 1.024-13.312-5.12-5.12-5.12-5.12-13.312v-72.704q0-7.168 5.12-12.288t12.288-6.144q116.736-4.096 216.064-63.488t159.744-158.72 63.488-216.064q0-8.192 5.12-13.312t13.312-5.12h72.704q7.168 0 13.312 6.144 6.144 5.12 5.12 13.312zM877.568 722.432v-548.864q0-67.584-48.128-115.712t-116.736-49.152h-547.84q-68.608 0-116.736 49.152t-48.128 115.712v548.864q0 67.584 48.128 115.712t116.736 49.152h547.84q68.608 0 116.736-49.152t48.128-115.712z" />
<glyph unicode="&#xe805;" glyph-name="phone" horiz-adv-x="804" d="M804.864 251.392q0-15.36-6.144-39.936t-12.288-38.912q-11.264-28.672-69.632-61.44-53.248-28.672-105.472-28.672-16.384 0-30.72 2.048t-32.768 7.168-26.624 8.192-31.744 11.264-28.672 10.24q-55.296 20.48-99.328 48.128-73.728 45.056-151.552 122.88t-122.88 151.552q-27.648 44.032-47.104 99.328-2.048 5.12-10.24 28.672t-12.288 31.744-8.192 26.624-7.168 32.768-2.048 29.696q0 53.248 29.696 106.496 31.744 58.368 60.416 69.632 14.336 6.144 38.912 12.288t39.936 6.144q8.192 0 12.288-2.048 10.24-3.072 30.72-44.032 6.144-10.24 16.384-30.72t20.48-35.84 17.408-30.72q2.048-2.048 10.24-14.336t12.288-20.48 4.096-16.384q0-11.264-16.384-28.672t-35.84-30.72-34.816-30.72-16.384-25.6q0-5.12 3.072-13.312t4.096-11.264 8.192-14.336 7.168-10.24q43.008-78.848 99.328-135.168t134.144-99.328q1.024 0 10.24-6.144t14.336-8.192 11.264-5.12 13.312-2.048q10.24 0 25.6 15.36t30.72 35.84 31.744 35.84 28.672 16.384q7.168 0 15.36-4.096t20.48-12.288 14.336-10.24q14.336-8.192 30.72-17.408t35.84-20.48 31.744-17.408q39.936-19.456 43.008-29.696 2.048-4.096 2.048-12.288z" />
<glyph unicode="&#xe806;" glyph-name="phone-squared" horiz-adv-x="878" d="M731.136 278.016q0 6.144-1.024 9.216-1.024 5.12-21.504 17.408t-51.2 27.648l-29.696 16.384q-3.072 2.048-11.264 8.192t-14.336 8.192-12.288 3.072q-10.24 0-26.624-18.432t-32.768-37.888-24.576-18.432q-4.096 0-9.216 2.048t-9.216 3.072-9.216 6.144-8.192 4.096q-57.344 31.744-97.28 72.704t-72.704 97.28q-1.024 2.048-5.12 8.192t-5.12 9.216-4.096 9.216-2.048 9.216q0 8.192 12.288 19.456t25.6 21.504 25.6 23.552 11.264 20.48q0 5.12-2.048 12.288t-9.216 14.336-7.168 10.24q-2.048 4.096-8.192 16.384t-14.336 25.6-15.36 27.648-14.336 23.552-9.216 10.24-9.216 1.024q-27.648 0-57.344-13.312-26.624-11.264-46.080-53.248t-19.456-74.752q0-9.216 1.024-19.456t3.072-17.408 5.12-19.456 6.144-16.384 7.168-18.432 6.144-17.408q33.792-94.208 123.904-183.296t182.272-123.904q4.096-1.024 17.408-6.144t19.456-7.168 16.384-5.12 18.432-5.12 17.408-3.072 19.456-2.048q32.768 0 74.752 19.456t54.272 46.080q12.288 30.72 12.288 57.344zM877.568 722.432v-548.864q0-67.584-48.128-115.712t-116.736-49.152h-547.84q-68.608 0-116.736 49.152t-48.128 115.712v548.864q0 67.584 48.128 115.712t116.736 49.152h547.84q68.608 0 116.736-49.152t48.128-115.712z" />
<glyph unicode="&#xe807;" glyph-name="codeopen" d="M123.904 292.352l344.064-230.4v205.824l-190.464 126.976zM88.064 374.272l110.592 73.728-110.592 73.728v-147.456zM556.032 61.952l344.064 230.4-153.6 102.4-190.464-126.976v-205.824zM512 343.552l155.648 104.448-155.648 104.448-155.648-104.448zM277.504 501.248l190.464 126.976v205.824l-344.064-230.4zM825.344 448l110.592-73.728v147.456zM746.496 501.248l153.6 102.4-344.064 230.4v-205.824zM1024 603.648v-311.296q0-23.552-19.456-36.864l-467.968-312.32q-12.288-7.168-24.576-7.168t-24.576 7.168l-467.968 312.32q-19.456 13.312-19.456 36.864v311.296q0 23.552 19.456 36.864l467.968 312.32q12.288 7.168 24.576 7.168t24.576-7.168l467.968-312.32q19.456-13.312 19.456-36.864z" />
<glyph unicode="&#xe808;" glyph-name="delicious" horiz-adv-x="878" d="M840.704 173.568v274.432h-401.408v402.432h-274.432q-53.248 0-91.136-37.888t-36.864-90.112v-274.432h402.432v-402.432h273.408q53.248 0 91.136 37.888t36.864 90.112zM877.568 722.432v-548.864q0-67.584-48.128-115.712t-116.736-49.152h-547.84q-68.608 0-116.736 49.152t-48.128 115.712v548.864q0 67.584 48.128 115.712t116.736 49.152h547.84q68.608 0 116.736-49.152t48.128-115.712z" />
<glyph unicode="&#xe809;" glyph-name="deviantart" horiz-adv-x="585" d="M584.704 786.944l-173.056-332.8 14.336-17.408h158.72v-237.568h-288.768l-25.6-16.384-80.896-156.672-17.408-17.408h-172.032v174.080l173.056 332.8-13.312 17.408h-159.744v236.544h289.792l25.6 17.408 80.896 155.648 16.384 17.408h172.032v-173.056z" />
<glyph unicode="&#xe80a;" glyph-name="digg" horiz-adv-x="1169" d="M187.392 799.232h116.736v-562.176h-304.128v398.336h187.392v163.84zM187.392 331.264v210.944h-70.656v-210.944h70.656zM351.232 635.392v-398.336h116.736v398.336h-116.736zM351.232 799.232v-116.736h116.736v116.736h-116.736zM515.072 635.392h304.128v-538.624h-304.128v93.184h187.392v47.104h-187.392v398.336zM702.464 331.264v210.944h-70.656v-210.944h70.656zM866.304 635.392h304.128v-538.624h-304.128v93.184h186.368v47.104h-186.368v398.336zM1052.672 331.264v210.944h-69.632v-210.944h69.632z" />
<glyph unicode="&#xe80b;" glyph-name="dribbble" horiz-adv-x="878" d="M584.704 102.912q-23.552 137.216-79.872 284.672h-1.024l-1.024-1.024q-9.216-3.072-24.576-9.216t-57.344-27.648-78.848-47.104-74.752-65.536-58.368-83.968l-9.216 6.144q105.472-86.016 239.616-86.016 74.752 0 145.408 29.696zM479.232 450.048q-12.288 27.648-29.696 63.488-178.176-53.248-385.024-53.248 0-4.096 0-12.288 0-70.656 24.576-135.168t70.656-114.688q28.672 50.176 70.656 95.232t81.92 70.656 74.752 46.080 56.32 27.648l21.504 7.168q2.048 1.024 7.168 2.048t7.168 3.072zM418.816 570.88q-68.608 121.856-140.288 216.064-78.848-36.864-133.12-106.496t-73.728-155.648q173.056 0 347.136 46.080zM808.96 388.608q-119.808 33.792-233.472 16.384 50.176-136.192 72.704-268.288 63.488 43.008 106.496 108.544t54.272 143.36zM349.184 811.52q-1.024 0-1.024 0t1.024 0zM686.080 729.6q-105.472 93.184-246.784 93.184-44.032 0-89.088-11.264 74.752-96.256 140.288-218.112 39.936 15.36 74.752 34.816t55.296 34.816 36.864 32.768 21.504 23.552zM814.080 452.096q-2.048 132.096-84.992 234.496l-1.024-1.024q-5.12-7.168-11.264-14.336t-24.576-24.576-40.96-34.816-56.32-36.864-75.776-36.864q14.336-30.72 25.6-54.272 1.024-4.096 3.072-10.24t5.12-9.216q20.48 2.048 41.984 4.096t41.984 1.024 39.936-1.024 35.84-2.048 32.768-3.072 27.648-4.096 20.48-3.072 14.336-3.072zM877.568 448q0-119.808-58.368-220.16t-159.744-159.744-220.16-59.392-221.184 59.392-158.72 159.744-59.392 220.16 59.392 220.16 158.72 159.744 221.184 59.392 220.16-59.392 159.744-159.744 58.368-220.16z" />
<glyph unicode="&#xe80c;" glyph-name="dropbox" d="M229.376 555.52l282.624-174.080-195.584-162.816-279.552 182.272zM793.6 239.104v-61.44l-280.576-167.936-1.024-1.024v1.024l-279.552 167.936v61.44l83.968-55.296 195.584 162.816v1.024l1.024-1.024 196.608-162.816zM316.416 892.416l195.584-162.816-282.624-174.080-192.512 154.624zM794.624 555.52l192.512-154.624-279.552-182.272-195.584 162.816zM707.584 892.416l279.552-182.272-192.512-154.624-282.624 174.080z" />
<glyph unicode="&#xe80d;" glyph-name="facebook" horiz-adv-x="585" d="M547.84 952.832v-150.528h-89.088q-49.152 0-66.56-20.48t-17.408-61.44v-108.544h167.936l-22.528-168.96h-145.408v-434.176h-175.104v434.176h-145.408v168.96h145.408v124.928q0 106.496 59.392 164.864t158.72 58.368q83.968 0 130.048-7.168z" />
<glyph unicode="&#xe80e;" glyph-name="facebook-squared" horiz-adv-x="878" d="M712.704 887.296q68.608 0 116.736-49.152t48.128-115.712v-548.864q0-67.584-48.128-115.712t-116.736-49.152h-106.496v339.968h113.664l16.384 133.12h-130.048v84.992q0 31.744 13.312 47.104t52.224 16.384l69.632 1.024v117.76q-35.84 5.12-102.4 5.12-76.8 0-123.904-46.080t-46.080-129.024v-97.28h-114.688v-133.12h114.688v-339.968h-304.128q-68.608 0-116.736 49.152t-48.128 115.712v548.864q0 67.584 48.128 115.712t116.736 49.152h547.84z" />
<glyph unicode="&#xe80f;" glyph-name="flickr" horiz-adv-x="878" d="M712.704 887.296q68.608 0 116.736-49.152t48.128-115.712v-548.864q0-67.584-48.128-115.712t-116.736-49.152h-547.84q-68.608 0-116.736 49.152t-48.128 115.712v548.864q0 67.584 48.128 115.712t116.736 49.152h547.84zM399.36 448q0 50.176-35.84 86.016t-86.016 34.816-84.992-34.816-35.84-86.016 35.84-86.016 84.992-34.816 86.016 34.816 35.84 86.016zM720.896 448q0 50.176-34.816 86.016t-86.016 34.816-86.016-34.816-34.816-86.016 34.816-86.016 86.016-34.816 86.016 34.816 34.816 86.016z" />
<glyph unicode="&#xe810;" glyph-name="foursquare" horiz-adv-x="731" d="M571.392 712.192l21.504 110.592q2.048 13.312-5.12 22.528t-20.48 10.24h-406.528q-13.312 0-22.528-10.24t-8.192-20.48v-629.76q0-4.096 3.072 0l165.888 200.704q13.312 15.36 22.528 19.456t26.624 4.096h137.216q12.288 0 20.48 8.192t10.24 17.408q14.336 73.728 21.504 108.544 2.048 12.288-6.144 23.552t-21.504 10.24h-167.936q-16.384 0-26.624 11.264t-11.264 27.648v23.552q0 16.384 11.264 26.624t26.624 11.264h197.632q10.24 0 20.48 7.168t11.264 17.408zM701.44 839.168q-9.216-41.984-30.72-152.576t-39.936-199.68-19.456-99.328q-4.096-12.288-5.12-18.432t-8.192-18.432-14.336-19.456-21.504-12.288-33.792-5.12h-154.624q-7.168 0-12.288-6.144-5.12-5.12-243.712-281.6-12.288-14.336-33.792-16.384t-27.648 3.072q-30.72 12.288-30.72 55.296v805.888q0 31.744 21.504 58.368t68.608 27.648h506.88q54.272 0 72.704-30.72t6.144-90.112zM701.44 839.168l-90.112-451.584q2.048 9.216 19.456 99.328t39.936 199.68 30.72 152.576z" />
<glyph unicode="&#xe811;" glyph-name="git-squared" horiz-adv-x="878" d="M332.8 212.48q0-37.888-53.248-37.888-61.44 0-61.44 35.84 0 36.864 56.32 36.864 58.368 0 58.368-34.816zM312.32 478.72q0-48.128-43.008-48.128-44.032 0-44.032 48.128 0 51.2 44.032 51.2 21.504 0 31.744-14.336t11.264-36.864zM406.528 521.728v71.68q-44.032-16.384-76.8-16.384-28.672 16.384-62.464 16.384-49.152 0-82.944-32.768t-33.792-81.92q0-28.672 16.384-58.368t41.984-37.888v-2.048q-21.504-9.216-21.504-48.128 0-30.72 23.552-44.032v-2.048q-64.512-21.504-64.512-78.848 0-26.624 11.264-45.056t30.72-29.696 40.96-14.336 47.104-4.096q128 0 128 106.496 0 38.912-27.648 57.344t-72.704 25.6q-15.36 3.072-28.672 12.288t-14.336 22.528q0 24.576 27.648 29.696 44.032 8.192 69.632 39.936t26.624 76.8q0 13.312-6.144 29.696 21.504 5.12 27.648 7.168zM440.32 282.112h78.848q-1.024 15.36-1.024 47.104v221.184q0 26.624 1.024 38.912h-78.848q2.048-12.288 2.048-39.936v-224.256q0-28.672-2.048-43.008zM731.136 291.328v69.632q-16.384-12.288-38.912-12.288-29.696 0-29.696 47.104v128h29.696q5.12 0 15.36 0t14.336-1.024v66.56h-59.392q0 47.104 1.024 58.368h-79.872q3.072-13.312 3.072-30.72v-27.648h-34.816v-66.56q20.48 2.048 21.504 2.048t6.144 0 7.168-1.024v-1.024h-2.048v-123.904q0-21.504 2.048-36.864t6.144-31.744 14.336-27.648 24.576-18.432 37.888-6.144q36.864 0 61.44 13.312zM528.384 694.784q0 20.48-14.336 36.864t-33.792 15.36-34.816-15.36-14.336-36.864q0-20.48 14.336-35.84t34.816-15.36 33.792 15.36 14.336 35.84zM877.568 722.432v-548.864q0-67.584-48.128-115.712t-116.736-49.152h-547.84q-68.608 0-116.736 49.152t-48.128 115.712v548.864q0 67.584 48.128 115.712t116.736 49.152h547.84q68.608 0 116.736-49.152t48.128-115.712z" />
<glyph unicode="&#xe812;" glyph-name="git" d="M339.968 94.72q0 57.344-94.208 57.344-90.112 0-90.112-59.392 0-58.368 98.304-58.368 86.016 0 86.016 60.416zM306.176 525.824q0 35.84-17.408 58.368t-50.176 23.552q-70.656 0-70.656-82.944 0-76.8 70.656-76.8 67.584 0 67.584 77.824zM459.776 711.168v-114.688q-20.48-7.168-45.056-13.312 9.216-24.576 9.216-48.128 0-71.68-41.984-122.88t-112.64-64.512q-22.528-5.12-33.792-15.36t-11.264-33.792q0-17.408 13.312-28.672t32.768-18.432 45.056-12.288 49.152-15.36 45.056-21.504 32.768-35.84 13.312-56.32q0-174.080-207.872-174.080-38.912 0-73.728 7.168t-66.56 23.552-50.176 47.104-18.432 72.704q0 94.208 104.448 128v3.072q-38.912 22.528-38.912 71.68 0 62.464 35.84 77.824v3.072q-40.96 13.312-67.584 61.44t-27.648 94.208q0 79.872 54.272 133.12t134.144 52.224q55.296 0 102.4-26.624 55.296 0 123.904 26.624zM642.048 208.384h-126.976q2.048 25.6 2.048 75.776v348.16q0 54.272-2.048 73.728h126.976q-3.072-19.456-3.072-71.68v-350.208q0-50.176 3.072-75.776zM985.088 335.36v-112.64q-40.96-22.528-99.328-22.528-35.84 0-61.44 12.288t-39.936 27.648-22.528 45.056-10.24 52.224-2.048 59.392v200.704h1.024v2.048q-4.096 0-11.264 0t-10.24 1.024q-12.288 0-33.792-3.072v108.544h55.296v43.008q0 30.72-4.096 51.2h130.048q-3.072-23.552-3.072-94.208h97.28v-108.544q-8.192 0-24.576 1.024t-24.576 1.024h-48.128v-208.896q0-74.752 49.152-74.752 34.816 0 62.464 19.456zM656.384 876.032q0-32.768-22.528-58.368t-55.296-24.576q-32.768 0-55.296 24.576t-23.552 58.368q0 33.792 22.528 58.368t56.32 25.6q33.792 0 55.296-25.6t22.528-58.368z" />
<glyph unicode="&#xe813;" glyph-name="github" horiz-adv-x="950" d="M365.568 264.704q0-22.528-7.168-46.080t-24.576-44.032-40.96-19.456-41.984 19.456-24.576 44.032-7.168 46.080 7.168 47.104 24.576 44.032 41.984 19.456 40.96-19.456 24.576-44.032 7.168-47.104zM731.136 264.704q0-22.528-7.168-46.080t-24.576-44.032-40.96-19.456-41.984 19.456-24.576 44.032-7.168 46.080 7.168 47.104 24.576 44.032 41.984 19.456 40.96-19.456 24.576-44.032 7.168-47.104zM823.296 264.704q0 68.608-39.936 116.736t-106.496 48.128q-23.552 0-111.616-12.288-40.96-6.144-90.112-6.144t-89.088 6.144q-87.040 12.288-111.616 12.288-67.584 0-106.496-48.128t-39.936-116.736q0-50.176 18.432-87.040t46.080-59.392 69.632-33.792 79.872-17.408 84.992-4.096h96.256q47.104 0 84.992 4.096t79.872 17.408 70.656 33.792 46.080 59.392 18.432 87.040zM951.296 366.080q0-118.784-34.816-189.44-22.528-44.032-60.416-75.776t-80.896-49.152-97.28-27.648-98.304-12.288-95.232-3.072q-44.032 0-80.896 2.048t-83.968 7.168-87.040 17.408-78.848 28.672-68.608 47.104-49.152 65.536q-35.84 70.656-35.84 189.44 0 135.168 77.824 226.304-15.36 46.080-15.36 96.256 0 66.56 28.672 124.928 62.464 0 108.544-22.528t108.544-70.656q83.968 20.48 176.128 20.48 84.992 0 159.744-18.432 60.416 47.104 107.52 68.608t107.52 22.528q29.696-58.368 29.696-124.928 0-49.152-15.36-95.232 77.824-92.16 77.824-227.328z" />
<glyph unicode="&#xe814;" glyph-name="github-squared" horiz-adv-x="878" d="M225.28 187.904q-5.12-5.12-11.264 1.024-8.192 6.144-2.048 11.264 4.096 5.12 11.264-2.048 6.144-6.144 2.048-10.24zM200.704 222.72q5.12-7.168 0-11.264-4.096-3.072-9.216 4.096t0 10.24q5.12 4.096 9.216-3.072zM165.888 256.512q-2.048-4.096-7.168-1.024t-4.096 7.168q2.048 2.048 8.192 1.024 5.12-3.072 3.072-7.168zM184.32 237.056q-4.096-4.096-9.216 2.048t-1.024 9.216q3.072 3.072 9.216-2.048 5.12-6.144 1.024-9.216zM258.048 173.568q-3.072-7.168-11.264-4.096-9.216 3.072-7.168 9.216t10.24 4.096q9.216-3.072 8.192-9.216zM293.888 170.496q0-6.144-9.216-6.144-10.24-1.024-10.24 6.144 0 6.144 9.216 6.144 10.24 1.024 10.24-6.144zM326.656 175.616q1.024-5.12-8.192-7.168t-10.24 4.096 8.192 8.192 10.24-5.12zM877.568 722.432v-548.864q0-67.584-48.128-115.712t-116.736-49.152h-128q-8.192 0-13.312 1.024t-11.264 3.072-9.216 8.192-3.072 15.36v137.216q0 55.296-29.696 80.896 32.768 3.072 58.368 10.24t54.272 22.528 46.080 37.888 30.72 59.392 11.264 86.016q0 69.632-45.056 117.76 21.504 52.224-5.12 116.736-15.36 5.12-46.080-6.144t-52.224-25.6l-21.504-13.312q-53.248 15.36-109.568 15.36t-110.592-15.36q-8.192 6.144-23.552 15.36t-48.128 22.528-49.152 7.168q-24.576-64.512-4.096-116.736-45.056-48.128-45.056-117.76 0-48.128 12.288-84.992t29.696-60.416 46.080-37.888 53.248-22.528 58.368-10.24q-22.528-20.48-27.648-59.392-12.288-5.12-25.6-8.192t-32.768-3.072-36.864 12.288-31.744 35.84q-11.264 18.432-27.648 29.696t-28.672 14.336l-11.264 1.024q-12.288 0-16.384-2.048t-3.072-7.168 5.12-8.192 7.168-6.144l4.096-3.072q12.288-6.144 24.576-21.504t18.432-29.696l5.12-13.312q8.192-21.504 25.6-34.816t37.888-17.408 39.936-4.096 31.744 2.048l13.312 3.072q0-22.528 0-59.392t1.024-38.912q0-12.288-7.168-19.456t-12.288-7.168-18.432-1.024h-128q-68.608 0-116.736 49.152t-48.128 115.712v548.864q0 67.584 48.128 115.712t116.736 49.152h547.84q68.608 0 116.736-49.152t48.128-115.712z" />
<glyph unicode="&#xe815;" glyph-name="github-circled" horiz-adv-x="878" d="M877.568 448q0-143.36-83.968-258.048t-216.064-158.72q-15.36-3.072-22.528 4.096t-7.168 17.408v120.832q0 55.296-29.696 80.896 32.768 3.072 58.368 10.24t54.272 22.528 46.080 37.888 30.72 59.392 11.264 86.016q0 69.632-45.056 117.76 21.504 52.224-5.12 116.736-15.36 5.12-46.080-6.144t-52.224-25.6l-21.504-13.312q-53.248 15.36-109.568 15.36t-110.592-15.36q-8.192 6.144-23.552 15.36t-48.128 22.528-49.152 7.168q-24.576-64.512-4.096-116.736-45.056-48.128-45.056-117.76 0-48.128 12.288-84.992t29.696-60.416 46.080-37.888 53.248-22.528 58.368-10.24q-22.528-20.48-27.648-59.392-12.288-5.12-25.6-8.192t-32.768-3.072-36.864 12.288-31.744 35.84q-11.264 18.432-27.648 29.696t-28.672 14.336l-11.264 1.024q-12.288 0-16.384-2.048t-3.072-7.168 5.12-8.192 7.168-6.144l4.096-3.072q12.288-6.144 24.576-21.504t18.432-29.696l5.12-13.312q8.192-21.504 25.6-34.816t37.888-17.408 39.936-4.096 31.744 2.048l13.312 3.072q0-22.528 0-51.2t1.024-30.72q0-10.24-8.192-17.408t-22.528-4.096q-132.096 44.032-216.064 158.72t-83.968 258.048q0 119.808 59.392 220.16t158.72 159.744 221.184 59.392 220.16-59.392 159.744-159.744 58.368-220.16z" />
<glyph unicode="&#xe816;" glyph-name="google" horiz-adv-x="860" d="M438.857 501.714h414.286q6.857-38.286 6.857-73.143 0-124-52-221.429t-148.286-152.286-220.857-54.857q-89.714 0-170.857 34.571t-140 93.429-93.429 140-34.571 170.857 34.571 170.857 93.429 140 140 93.429 170.857 34.571q171.429 0 294.286-114.857l-119.429-114.857q-70.286 68-174.857 68-73.714 0-136.286-37.143t-99.143-100.857-36.571-139.143 36.571-139.143 99.143-100.857 136.286-37.143q49.714 0 91.429 13.714t68.571 34.286 46.857 46.857 29.429 49.714 12.857 44.571h-249.143v150.857z" />
<glyph unicode="&#xe817;" glyph-name="google-plus" horiz-adv-x="1317" d="M821.143 429.143q0-118.857-49.714-211.714t-141.714-145.143-210.857-52.286q-85.143 0-162.857 33.143t-133.714 89.143-89.143 133.714-33.143 162.857 33.143 162.857 89.143 133.714 133.714 89.143 162.857 33.143q163.429 0 280.571-109.714l-113.714-109.143q-66.857 64.571-166.857 64.571-70.286 0-130-35.429t-94.571-96.286-34.857-132.857 34.857-132.857 94.571-96.286 130-35.429q47.429 0 87.143 13.143t65.429 32.857 44.857 44.857 28 47.429 12.286 42.286h-237.714v144h395.429q6.857-36 6.857-69.714zM1316.571 498.857v-120h-119.429v-119.429h-120v119.429h-119.429v120h119.429v119.429h120v-119.429h119.429z" />
<glyph unicode="&#xe818;" glyph-name="google-plus-square" horiz-adv-x="878" d="M524 433.714q0 14.857-3.429 36.571h-206.857v-75.429h124q-1.714-13.714-9.429-28.571t-21.429-30.286-38-25.429-55.143-10q-56.571 0-96.571 40.571t-40 97.714 40 97.714 96.571 40.571q52.571 0 87.429-33.714l59.429 57.714q-61.714 57.143-146.857 57.143-91.429 0-155.429-64.286t-64-155.143 64-155.143 155.429-64.286q94.286 0 152.286 60t58 154.286zM721.143 407.428h62.286v62.857h-62.286v62.857h-62.857v-62.857h-62.857v-62.857h62.857v-62.857h62.857v62.857zM877.714 713.143v-548.571q0-68-48.286-116.286t-116.286-48.286h-548.571q-68 0-116.286 48.286t-48.286 116.286v548.571q0 68 48.286 116.286t116.286 48.286h548.571q68 0 116.286-48.286t48.286-116.286z" />
<glyph unicode="&#xe819;" glyph-name="instagram" horiz-adv-x="878" d="M585.143 438.857q0 60.571-42.857 103.429t-103.429 42.857-103.429-42.857-42.857-103.429 42.857-103.429 103.429-42.857 103.429 42.857 42.857 103.429zM664 438.857q0-93.714-65.714-159.429t-159.429-65.714-159.429 65.714-65.714 159.429 65.714 159.429 159.429 65.714 159.429-65.714 65.714-159.429zM725.714 673.143q0-21.714-15.429-37.143t-37.143-15.429-37.143 15.429-15.429 37.143 15.429 37.143 37.143 15.429 37.143-15.429 15.429-37.143zM438.857 798.857q-4 0-43.714 0.286t-60.286 0-55.143-1.714-58.857-5.714-40.857-10.571q-28.571-11.429-50.286-33.143t-33.143-50.286q-6.286-16.571-10.571-40.857t-5.714-58.857-1.714-55.143 0-60.286 0.286-43.714-0.286-43.714 0-60.286 1.714-55.143 5.714-58.857 10.571-40.857q11.429-28.571 33.143-50.286t50.286-33.143q16.571-6.286 40.857-10.571t58.857-5.714 55.143-1.714 60.286 0 43.714 0.286 43.714-0.286 60.286 0 55.143 1.714 58.857 5.714 40.857 10.571q28.571 11.429 50.286 33.143t33.143 50.286q6.286 16.571 10.571 40.857t5.714 58.857 1.714 55.143 0 60.286-0.286 43.714 0.286 43.714 0 60.286-1.714 55.143-5.714 58.857-10.571 40.857q-11.429 28.571-33.143 50.286t-50.286 33.143q-16.571 6.286-40.857 10.571t-58.857 5.714-55.143 1.714-60.286 0-43.714-0.286zM877.714 438.857q0-130.857-2.857-181.143-5.714-118.857-70.857-184t-184-70.857q-50.286-2.857-181.143-2.857t-181.143 2.857q-118.857 5.714-184 70.857t-70.857 184q-2.857 50.286-2.857 181.143t2.857 181.143q5.714 118.857 70.857 184t184 70.857q50.286 2.857 181.143 2.857t181.143-2.857q118.857-5.714 184-70.857t70.857-184q2.857-50.286 2.857-181.143z" />
<glyph unicode="&#xe81a;" glyph-name="jsfiddle" horiz-adv-x="1169" d="M1028.096 518.656q63.488-25.6 103.424-82.944t38.912-126.976q0-93.184-67.584-159.744t-162.816-66.56q-2.048 0-6.144 0t-6.144 0h-695.296q-97.28 6.144-164.864 71.68t-67.584 160.768q0 62.464 31.744 115.712t83.968 83.968q-7.168 22.528-7.168 47.104 0 65.536 47.104 111.616t113.664 47.104q54.272 0 98.304-33.792 43.008 88.064 126.976 142.336t186.368 53.248q95.232 0 175.104-46.080t126.976-124.928 46.080-172.032q0-3.072 0-10.24t-1.024-10.24zM267.264 367.104q0-69.632 48.128-110.592t118.784-40.96q78.848 0 137.216 57.344-9.216 11.264-26.624 31.744t-25.6 28.672q-37.888-36.864-81.92-36.864-31.744 0-53.248 19.456t-22.528 50.176q0 29.696 22.528 49.152t52.224 19.456q24.576 0 48.128-12.288t41.984-30.72 36.864-43.008 38.912-47.104 44.032-43.008 56.32-30.72 68.608-12.288q69.632 0 116.736 40.96t48.128 108.544q0 69.632-48.128 109.568t-117.76 40.96q-81.92 0-138.24-55.296 8.192-9.216 17.408-19.456t19.456-23.552 16.384-19.456q37.888 36.864 80.896 36.864 29.696 0 53.248-18.432t22.528-48.128q0-32.768-21.504-52.224t-53.248-19.456q-24.576 0-47.104 11.264t-40.96 31.744-37.888 43.008-39.936 47.104-44.032 41.984-55.296 31.744-67.584 12.288q-69.632 0-117.76-39.936t-49.152-108.544z" />
<glyph unicode="&#xe81b;" glyph-name="linkedin-squared" horiz-adv-x="878" d="M135.168 152.064h132.096v396.288h-132.096v-396.288zM276.48 671.232q-1.024 29.696-21.504 49.152t-52.224 19.456-54.272-19.456-21.504-49.152q0-29.696 20.48-49.152t53.248-19.456v0q33.792 0 54.272 19.456t21.504 49.152zM610.304 152.064h132.096v227.328q0 88.064-41.984 133.12t-110.592 45.056q-76.8 0-118.784-66.56h1.024v57.344h-132.096q2.048-37.888 0-396.288h132.096v221.184q0 22.528 4.096 32.768 8.192 19.456 25.6 33.792t41.984 14.336q66.56 0 66.56-90.112v-211.968zM877.568 722.432v-548.864q0-67.584-48.128-115.712t-116.736-49.152h-547.84q-68.608 0-116.736 49.152t-48.128 115.712v548.864q0 67.584 48.128 115.712t116.736 49.152h547.84q68.608 0 116.736-49.152t48.128-115.712z" />
<glyph unicode="&#xe81c;" glyph-name="linkedin" horiz-adv-x="878" d="M199.68 602.624v-566.272h-188.416v566.272h188.416zM211.968 777.728q0-41.984-29.696-69.632t-76.8-27.648h-1.024q-47.104 0-75.776 27.648t-28.672 69.632 29.696 69.632 76.8 27.648 75.776-27.648 29.696-69.632zM877.568 360.96v-324.608h-187.392v303.104q0 60.416-23.552 94.208t-72.704 33.792q-35.84 0-59.392-19.456t-36.864-49.152q-6.144-17.408-6.144-46.080v-316.416h-188.416q1.024 228.352 1.024 369.664t0 168.96l-1.024 27.648h188.416v-81.92h-1.024q11.264 18.432 23.552 31.744t31.744 29.696 50.176 24.576 65.536 9.216q97.28 0 156.672-64.512t59.392-190.464z" />
<glyph unicode="&#xe81d;" glyph-name="pinterest-circled" horiz-adv-x="878" d="M877.568 448q0-119.808-58.368-220.16t-159.744-159.744-220.16-59.392q-63.488 0-124.928 18.432 33.792 53.248 44.032 94.208 5.12 19.456 31.744 120.832 11.264-22.528 40.96-38.912t65.536-16.384q68.608 0 122.88 38.912t84.992 107.52 29.696 154.624q0 65.536-34.816 121.856t-98.304 93.184-145.408 36.864q-60.416 0-112.64-17.408t-88.064-44.032-62.464-62.464-37.888-73.728-12.288-76.8q0-59.392 22.528-104.448t67.584-63.488q16.384-7.168 21.504 11.264 1.024 4.096 4.096 17.408t5.12 17.408q3.072 13.312-6.144 24.576-29.696 34.816-29.696 86.016 0 86.016 59.392 148.48t156.672 62.464q86.016 0 134.144-47.104t49.152-121.856q0-97.28-39.936-164.864t-100.352-68.608q-34.816 0-55.296 24.576t-13.312 60.416q4.096 19.456 15.36 53.248t16.384 58.368 7.168 44.032q0 27.648-15.36 47.104t-44.032 18.432q-35.84 0-60.416-31.744t-24.576-81.92q0-40.96 14.336-69.632l-56.32-238.592q-10.24-39.936-7.168-101.376-117.76 52.224-190.464 160.768t-72.704 241.664q0 119.808 59.392 220.16t158.72 159.744 221.184 59.392 220.16-59.392 159.744-159.744 58.368-220.16z" />
<glyph unicode="&#xe81e;" glyph-name="pinterest-squared" horiz-adv-x="878" d="M712.704 887.296q68.608 0 116.736-49.152t48.128-115.712v-548.864q0-67.584-48.128-115.712t-116.736-49.152h-413.696q48.128 69.632 61.44 120.832 5.12 19.456 30.72 118.784 11.264-21.504 41.984-37.888t64.512-16.384q103.424 0 167.936 84.992t65.536 212.992q0 48.128-19.456 93.184t-55.296 78.848-87.040 55.296-112.64 21.504q-59.392 0-111.616-16.384t-87.040-44.032-61.44-62.464-37.888-72.704-12.288-75.776q0-58.368 22.528-103.424t66.56-62.464q7.168-3.072 13.312 0t8.192 10.24q6.144 25.6 9.216 34.816 3.072 13.312-7.168 24.576-28.672 35.84-28.672 86.016 0 84.992 59.392 146.432t154.624 60.416q84.992 0 133.12-46.080t48.128-119.808q0-96.256-38.912-163.84t-99.328-67.584q-33.792 0-55.296 25.6t-13.312 58.368q5.12 19.456 15.36 53.248t16.384 58.368 6.144 41.984q0 28.672-14.336 47.104t-43.008 18.432q-35.84 0-59.392-31.744t-24.576-79.872q0-40.96 13.312-69.632l-55.296-236.544q-14.336-57.344-4.096-145.408h-104.448q-68.608 0-116.736 49.152t-48.128 115.712v548.864q0 67.584 48.128 115.712t116.736 49.152h547.84z" />
<glyph unicode="&#xe81f;" glyph-name="reddit" horiz-adv-x="1316" d="M862.208 143.872q0-8.192-7.168-17.408-29.696-33.792-83.968-47.104t-112.64-13.312q-143.36 0-197.632 60.416-6.144 9.216-6.144 17.408 0 9.216 6.144 16.384t17.408 7.168q8.192 0 16.384-7.168 33.792-27.648 71.68-36.864t91.136-10.24 92.16 10.24 71.68 36.864q9.216 7.168 17.408 7.168 10.24 0 16.384-7.168t7.168-16.384zM559.104 367.104q0-34.816-24.576-59.392t-59.392-24.576-60.416 24.576-24.576 59.392q0 34.816 24.576 59.392t60.416 25.6 59.392-25.6 24.576-59.392zM926.72 367.104q0-34.816-24.576-59.392t-59.392-24.576q-33.792 0-59.392 24.576t-25.6 59.392 25.6 59.392 59.392 25.6 59.392-25.6 24.576-59.392zM237.568 535.040q-22.528 15.36-50.176 15.36-37.888 0-65.536-26.624t-26.624-64.512q0-40.96 30.72-68.608 30.72 79.872 111.616 144.384zM1154.048 300.544q0 126.976-142.336 221.184-72.704 48.128-165.888 72.704t-189.44 23.552-189.44-23.552-167.936-72.704q-141.312-94.208-141.312-221.184t141.312-221.184q73.728-48.128 167.936-72.704t189.44-23.552 189.44 23.552 165.888 72.704q142.336 94.208 142.336 221.184zM1220.608 459.264q0 37.888-26.624 64.512t-64.512 26.624q-28.672 0-53.248-16.384 79.872-65.536 109.568-146.432 34.816 27.648 34.816 71.68zM1138.688 845.312q0 27.648-19.456 47.104t-47.104 20.48q-27.648 0-48.128-20.48t-19.456-47.104q0-27.648 19.456-47.104t48.128-19.456q27.648 0 47.104 19.456t19.456 47.104zM1268.736 459.264q0-36.864-19.456-69.632t-50.176-51.2q3.072-20.48 3.072-37.888 0-79.872-46.080-146.432t-118.784-114.688q-79.872-52.224-179.2-77.824t-201.728-25.6-202.752 25.6-180.224 77.824q-73.728 48.128-118.784 114.688t-45.056 146.432q0 20.48 4.096 40.96-30.72 18.432-48.128 50.176t-17.408 67.584q0 57.344 40.96 98.304t98.304 40.96q51.2 0 90.112-34.816 151.552 97.28 364.544 101.376l82.944 261.12q5.12 16.384 22.528 16.384 13.312 0 219.136-52.224 14.336 31.744 41.984 51.2t63.488 18.432q47.104 0 80.896-33.792t32.768-80.896-32.768-80.896-80.896-33.792q-47.104 0-80.896 33.792t-33.792 79.872l-193.536 46.080-71.68-225.28q199.68-9.216 344.064-102.4 40.96 35.84 93.184 35.84 58.368 0 98.304-40.96t40.96-98.304z" />
<glyph unicode="&#xe820;" glyph-name="reddit-squared" horiz-adv-x="878" d="M542.72 306.688q4.096 4.096 10.24 4.096t10.24-4.096 4.096-10.24-4.096-10.24q-37.888-36.864-118.784-36.864h-1.024q-81.92 0-118.784 36.864-4.096 4.096-4.096 10.24t4.096 10.24 10.24 4.096 10.24-4.096q27.648-28.672 98.304-28.672h1.024q69.632 0 98.304 28.672zM382.976 432.64q0-21.504-14.336-36.864t-35.84-15.36-35.84 15.36-15.36 36.864 15.36 35.84 35.84 15.36 35.84-15.36 14.336-35.84zM693.248 681.472q-16.384 0-27.648 12.288t-12.288 28.672q0 17.408 12.288 28.672t27.648 12.288q17.408 0 29.696-12.288t12.288-28.672-12.288-28.672-29.696-12.288zM695.296 887.296q74.752 0 129.024-54.272t53.248-130.048v-509.952q0-76.8-53.248-130.048t-129.024-54.272h-512q-75.776 0-129.024 54.272t-54.272 130.048v509.952q0 76.8 54.272 130.048t129.024 54.272h512zM754.688 422.4q20.48 8.192 32.768 26.624t12.288 39.936q0 29.696-20.48 50.176t-49.152 20.48q-34.816 0-56.32-26.624-86.016 60.416-214.016 65.536l47.104 151.552 117.76-28.672q1.024-28.672 20.48-48.128t48.128-20.48q28.672 0 49.152 20.48t21.504 49.152-21.504 49.152-49.152 20.48q-20.48 0-36.864-12.288t-25.6-29.696l-130.048 30.72q-5.12 1.024-10.24-2.048t-6.144-8.192l-54.272-172.032q-128-2.048-218.112-64.512-20.48 24.576-53.248 24.576-28.672 0-49.152-21.504t-20.48-49.152q0-21.504 10.24-38.912t30.72-26.624q-4.096-13.312-4.096-30.72 0-55.296 41.984-103.424t115.712-75.776 158.72-27.648q86.016 0 158.72 27.648t114.688 75.776 43.008 103.424q0 15.36-4.096 30.72zM555.008 483.84q21.504 0 35.84-15.36t15.36-35.84-15.36-36.864-35.84-15.36-35.84 15.36-15.36 36.864 15.36 35.84 35.84 15.36z" />
<glyph unicode="&#xe821;" glyph-name="skype" horiz-adv-x="878" d="M670.72 352.768q0 28.672-11.264 52.224t-27.648 38.912-41.984 27.648-47.104 19.456-50.176 13.312l-59.392 14.336q-17.408 4.096-25.6 6.144t-19.456 6.144-17.408 9.216-9.216 12.288-4.096 16.384q0 44.032 81.92 44.032 24.576 0 44.032-6.144t30.72-16.384 21.504-19.456 23.552-16.384 27.648-7.168q26.624 0 43.008 18.432t16.384 44.032q0 31.744-32.768 56.32t-80.896 38.912-103.424 13.312q-38.912 0-75.776-9.216t-68.608-26.624-50.176-49.152-19.456-73.728q0-34.816 10.24-61.44t32.768-43.008 45.056-27.648 59.392-18.432l82.944-20.48q52.224-12.288 64.512-20.48 18.432-11.264 18.432-34.816 0-21.504-23.552-36.864t-59.392-14.336q-29.696 0-52.224 9.216t-37.888 22.528-25.6 25.6-26.624 21.504-30.72 9.216q-28.672 0-43.008-17.408t-14.336-41.984q0-53.248 69.632-90.112t165.888-37.888q41.984 0 79.872 10.24t70.656 30.72 50.176 53.248 19.456 75.776zM877.568 228.864q0-91.136-64.512-155.648t-154.624-64.512q-74.752 0-134.144 46.080-44.032-9.216-84.992-9.216-81.92 0-156.672 31.744t-129.024 86.016-84.992 128-31.744 156.672q0 41.984 9.216 86.016-46.080 59.392-46.080 133.12 0 91.136 64.512 155.648t154.624 64.512q74.752 0 134.144-46.080 44.032 9.216 86.016 9.216 80.896 0 155.648-31.744t129.024-86.016 84.992-128 31.744-156.672q0-41.984-9.216-86.016 46.080-59.392 46.080-133.12z" />
<glyph unicode="&#xe822;" glyph-name="soundclowd" horiz-adv-x="1316" d="M448.512 175.616l8.192 138.24-8.192 299.008q-1.024 5.12-5.12 9.216t-9.216 4.096-9.216-4.096-4.096-9.216l-8.192-299.008 8.192-138.24q1.024-5.12 4.096-9.216t9.216-3.072q12.288 0 14.336 12.288zM617.472 193.024l6.144 119.808-7.168 334.848q0 9.216-7.168 14.336-5.12 2.048-9.216 2.048t-9.216-2.048q-7.168-5.12-7.168-14.336l-1.024-3.072-5.12-330.752q0-1.024 6.144-135.168v0q0-6.144 3.072-10.24 5.12-6.144 13.312-6.144 6.144 0 11.264 5.12 5.12 4.096 5.12 11.264zM20.48 386.56l11.264-72.704-11.264-71.68q-2.048-5.12-5.12-5.12t-5.12 5.12l-10.24 71.68 10.24 72.704q1.024 5.12 5.12 5.12t5.12-5.12zM69.632 431.616l14.336-117.76-14.336-115.712q-2.048-5.12-6.144-5.12-5.12 0-5.12 5.12l-13.312 115.712 13.312 117.76q0 5.12 5.12 5.12 4.096 0 6.144-5.12zM121.856 454.144l14.336-140.288-14.336-135.168q0-6.144-6.144-6.144t-7.168 6.144l-12.288 135.168 12.288 140.288q1.024 6.144 7.168 6.144t6.144-6.144zM175.104 458.24l13.312-144.384-13.312-139.264q-1.024-8.192-7.168-8.192-8.192 0-8.192 8.192l-11.264 139.264 11.264 144.384q0 7.168 8.192 7.168 6.144 0 7.168-7.168zM229.376 446.976l12.288-133.12-12.288-140.288q-1.024-9.216-9.216-9.216-3.072 0-6.144 2.048t-2.048 7.168l-12.288 140.288 12.288 133.12q0 4.096 2.048 6.144t6.144 3.072q8.192 0 9.216-9.216zM282.624 530.944l12.288-217.088-12.288-140.288q0-4.096-3.072-7.168t-6.144-3.072q-9.216 0-10.24 10.24l-10.24 140.288 10.24 217.088q1.024 10.24 10.24 10.24 4.096 0 6.144-3.072t3.072-7.168zM336.896 580.096l10.24-267.264-10.24-139.264q0-5.12-3.072-8.192t-8.192-3.072q-10.24 0-11.264 11.264l-9.216 139.264 9.216 267.264q1.024 11.264 11.264 11.264 5.12 0 8.192-4.096t3.072-7.168zM392.192 602.624l10.24-288.768-10.24-138.24q-1.024-12.288-12.288-12.288-10.24 0-12.288 12.288l-9.216 138.24 9.216 288.768q0 5.12 4.096 9.216t8.192 4.096q5.12 0 8.192-4.096t4.096-9.216zM503.808 604.672l8.192-290.816-8.192-136.192q0-6.144-5.12-10.24t-9.216-4.096-10.24 3.072-4.096 11.264l-8.192 136.192 8.192 290.816q0 7.168 4.096 11.264t10.24 3.072 9.216-3.072 5.12-11.264zM560.128 594.432l8.192-281.6-8.192-134.144q0-6.144-5.12-11.264t-10.24-4.096-11.264 4.096-5.12 11.264l-6.144 134.144 6.144 281.6q1.024 7.168 5.12 11.264t11.264 4.096 10.24-4.096 5.12-11.264zM680.96 312.832l-8.192-132.096q0-7.168-5.12-12.288t-12.288-5.12-12.288 5.12-6.144 12.288l-3.072 65.536-3.072 66.56 6.144 363.52v2.048q1.024 8.192 7.168 13.312 5.12 4.096 11.264 4.096 5.12 0 8.192-3.072 8.192-4.096 9.216-14.336zM1316.864 324.096q0-66.56-48.128-113.664t-113.664-47.104h-449.536q-7.168 1.024-12.288 6.144t-5.12 12.288v514.048q0 12.288 16.384 18.432 48.128 19.456 103.424 19.456 110.592 0 192.512-74.752t91.136-185.344q30.72 12.288 63.488 12.288 66.56 0 113.664-47.104t48.128-114.688z" />
<glyph unicode="&#xe823;" glyph-name="spotify" horiz-adv-x="878" d="M644.096 268.8q0 18.432-17.408 28.672-110.592 65.536-254.976 65.536-75.776 0-163.84-19.456-24.576-5.12-24.576-29.696 0-11.264 8.192-19.456t20.48-8.192q2.048 0 20.48 5.12 75.776 15.36 139.264 15.36 129.024 0 226.304-59.392 11.264-6.144 19.456-6.144 10.24 0 18.432 8.192t8.192 19.456zM698.368 391.68q0 22.528-19.456 34.816-135.168 79.872-313.344 79.872-87.040 0-173.056-23.552-27.648-7.168-27.648-36.864 0-14.336 10.24-23.552t24.576-10.24q4.096 0 20.48 4.096 70.656 19.456 143.36 19.456 159.744 0 279.552-70.656 13.312-8.192 21.504-8.192 14.336 0 24.576 10.24t9.216 24.576zM760.832 532.992q0 26.624-23.552 39.936-71.68 41.984-166.912 63.488t-195.584 21.504q-116.736 0-208.896-26.624-12.288-4.096-21.504-15.36t-9.216-27.648q0-17.408 12.288-29.696t28.672-11.264q7.168 0 23.552 4.096 75.776 21.504 175.104 21.504 91.136 0 177.152-19.456t144.384-54.272q12.288-7.168 23.552-7.168 16.384 0 28.672 11.264t12.288 29.696zM877.568 448q0-119.808-58.368-220.16t-159.744-159.744-220.16-59.392-221.184 59.392-158.72 159.744-59.392 220.16 59.392 220.16 158.72 159.744 221.184 59.392 220.16-59.392 159.744-159.744 58.368-220.16z" />
<glyph unicode="&#xe824;" glyph-name="stackexchange" horiz-adv-x="731" d="M719.872 244.224v-37.888q0-48.128-33.792-82.944t-78.848-33.792h-32.768l-148.48-153.6v153.6h-302.080q-46.080 0-78.848 33.792t-32.768 82.944v37.888h707.584zM719.872 430.592v-146.432h-707.584v146.432h707.584zM719.872 617.984v-146.432h-707.584v146.432h707.584zM719.872 697.856v-38.912h-707.584v38.912q0 48.128 32.768 81.92t78.848 33.792h483.328q46.080 0 78.848-33.792t33.792-81.92z" />
<glyph unicode="&#xe825;" glyph-name="stackoverflow" horiz-adv-x="804" d="M530.432 159.232v-86.016l-404.48-1.024v87.040zM667.648 356.864v-420.864h-647.168l-19.456 1.024h-1.024v419.84h69.632v-353.28h529.408v353.28h68.608zM138.24 306.688l401.408-36.864-7.168-86.016-402.432 36.864zM176.128 487.936l391.168-105.472-22.528-82.944-390.144 104.448zM269.312 686.592l348.16-205.824-44.032-73.728-348.16 205.824zM475.136 876.032l227.328-333.824-70.656-49.152-227.328 333.824zM734.208 960l69.632-398.336-86.016-14.336-68.608 397.312z" />
<glyph unicode="&#xe826;" glyph-name="stumbleupon" horiz-adv-x="1097" d="M607.232 553.472v67.584q0 23.552-17.408 40.96t-40.96 16.384-40.96-16.384-17.408-40.96v-350.208q0-100.352-71.68-171.008t-174.080-70.656q-101.376 0-173.056 71.68t-71.68 173.056v152.576h187.392v-149.504q0-24.576 17.408-41.984t40.96-16.384 40.96 16.384 17.408 41.984v354.304q0 97.28 71.68 166.912t173.056 68.608q100.352 0 172.032-69.632t72.704-167.936v-77.824l-111.616-32.768zM909.312 426.496h187.392v-152.576q0-101.376-71.68-173.056t-173.056-71.68-173.056 70.656-71.68 172.032v153.6l74.752-34.816 111.616 32.768v-154.624q0-23.552 16.384-40.96t40.96-16.384 41.984 16.384 16.384 40.96v157.696z" />
<glyph unicode="&#xe827;" glyph-name="stumbleupon-circled" horiz-adv-x="878" d="M494.592 480.768l51.2 15.36v34.816q0 46.080-32.768 77.824t-78.848 31.744-78.848-31.744-32.768-76.8v-161.792q0-11.264-8.192-19.456t-18.432-7.168-19.456 7.168-7.168 19.456v68.608h-86.016v-69.632q0-47.104 32.768-79.872t79.872-31.744q46.080 0 78.848 31.744t32.768 77.824v160.768q0 10.24 7.168 18.432t19.456 8.192q11.264 0 18.432-8.192t8.192-18.432v-31.744zM685.056 369.152v69.632h-86.016v-71.68q0-11.264-7.168-19.456t-19.456-7.168q-10.24 0-18.432 7.168t-8.192 19.456v69.632l-51.2-14.336-33.792 16.384v-70.656q0-46.080 32.768-78.848t79.872-31.744 78.848 31.744 32.768 79.872zM877.568 448q0-119.808-58.368-220.16t-159.744-159.744-220.16-59.392-221.184 59.392-158.72 159.744-59.392 220.16 59.392 220.16 158.72 159.744 221.184 59.392 220.16-59.392 159.744-159.744 58.368-220.16z" />
<glyph unicode="&#xe828;" glyph-name="tumblr-squared" horiz-adv-x="878" d="M649.216 125.44l-35.84 104.448q-24.576-12.288-58.368-12.288-20.48-1.024-35.84 5.12t-21.504 18.432-10.24 23.552-3.072 24.576v227.328h147.456v110.592h-146.432v186.368h-107.52q-5.12 0-5.12-5.12-3.072-25.6-10.24-50.176t-22.528-54.272-44.032-54.272-67.584-38.912v-94.208h74.752v-238.592q0-32.768 12.288-65.536t36.864-63.488 69.632-49.152 100.352-17.408q39.936 0 77.824 14.336t49.152 28.672zM877.568 722.432v-548.864q0-67.584-48.128-115.712t-116.736-49.152h-547.84q-68.608 0-116.736 49.152t-48.128 115.712v548.864q0 67.584 48.128 115.712t116.736 49.152h547.84q68.608 0 116.736-49.152t48.128-115.712z" />
<glyph unicode="&#xe829;" glyph-name="tumblr" horiz-adv-x="585" d="M539.648 200.192l45.056-135.168q-12.288-19.456-62.464-37.888t-101.376-18.432q-59.392-1.024-109.568 15.36t-80.896 41.984-54.272 60.416-31.744 68.608-9.216 67.584v311.296h-96.256v122.88q40.96 14.336 73.728 39.936t52.224 51.2 32.768 58.368 19.456 56.32 8.192 50.176q1.024 3.072 3.072 5.12t4.096 2.048h139.264v-242.688h190.464v-143.36h-190.464v-295.936q0-17.408 3.072-32.768t13.312-29.696 28.672-23.552 46.080-8.192q45.056 1.024 76.8 16.384z" />
<glyph unicode="&#xe82a;" glyph-name="twitter-squared" horiz-adv-x="878" d="M731.136 611.84q-31.744-14.336-68.608-19.456 38.912 22.528 53.248 66.56-37.888-21.504-76.8-29.696-34.816 37.888-87.040 37.888-50.176 0-84.992-34.816t-35.84-84.992q0-16.384 3.072-27.648-73.728 4.096-138.24 37.888t-109.568 88.064q-16.384-28.672-16.384-60.416 0-65.536 52.224-100.352-27.648 1.024-57.344 15.36v-1.024q0-43.008 28.672-76.8t69.632-40.96q-16.384-5.12-28.672-5.12-7.168 0-22.528 2.048 12.288-35.84 43.008-59.392t68.608-23.552q-65.536-51.2-148.48-51.2-15.36 0-28.672 1.024 83.968-53.248 184.32-53.248 63.488 0 119.808 20.48t95.232 54.272 69.632 77.824 43.008 93.184 13.312 96.256q0 10.24 0 15.36 35.84 25.6 59.392 62.464zM877.568 722.432v-548.864q0-67.584-48.128-115.712t-116.736-49.152h-547.84q-68.608 0-116.736 49.152t-48.128 115.712v548.864q0 67.584 48.128 115.712t116.736 49.152h547.84q68.608 0 116.736-49.152t48.128-115.712z" />
<glyph unicode="&#xe82b;" glyph-name="twitter" horiz-adv-x="950" d="M925.696 726.528q-37.888-55.296-92.16-95.232 0-8.192 0-23.552 0-74.752-21.504-148.48t-65.536-142.336-105.472-119.808-147.456-83.968-185.344-30.72q-154.624 0-282.624 82.944 19.456-2.048 44.032-2.048 129.024 0 229.376 78.848-60.416 1.024-107.52 36.864t-65.536 91.136q19.456-3.072 34.816-3.072 24.576 0 49.152 6.144-64.512 13.312-106.496 63.488t-41.984 117.76v2.048q38.912-21.504 83.968-23.552-37.888 25.6-60.416 65.536t-22.528 88.064q0 50.176 25.6 93.184 69.632-84.992 167.936-136.192t212.992-56.32q-5.12 21.504-5.12 41.984 0 76.8 54.272 130.048t130.048 54.272q80.896 0 135.168-58.368 62.464 12.288 116.736 45.056-20.48-65.536-80.896-102.4 53.248 6.144 106.496 28.672z" />
<glyph unicode="&#xe82c;" glyph-name="vimeo-squared" horiz-adv-x="878" d="M716.8 596.48q9.216 48.128-12.288 74.752-29.696 36.864-106.496 25.6-10.24-1.024-23.552-7.168t-32.768-17.408-36.864-27.648-33.792-39.936-25.6-52.224q45.056 4.096 64.512-9.216t15.36-56.32q-3.072-29.696-29.696-81.92-24.576-44.032-40.96-56.32-24.576-18.432-49.152 8.192-13.312 13.312-21.504 36.864t-11.264 40.96-5.12 48.128-5.12 40.96q-13.312 73.728-19.456 94.208-7.168 20.48-20.48 38.912t-28.672 23.552q-32.768 8.192-72.704-14.336-30.72-18.432-77.824-61.44t-70.656-57.344v-4.096q9.216-5.12 15.36-15.36t12.288-11.264q11.264-2.048 30.72 5.12t32.768 6.144 24.576-17.408q6.144-10.24 10.24-22.528t8.192-26.624 7.168-23.552q10.24-26.624 30.72-106.496 20.48-83.968 32.768-112.64 23.552-57.344 58.368-71.68 24.576-7.168 49.152-1.024t43.008 18.432q74.752 44.032 142.336 135.168 60.416 78.848 99.328 166.912t47.104 130.048zM877.568 722.432v-548.864q0-67.584-48.128-115.712t-116.736-49.152h-547.84q-68.608 0-116.736 49.152t-48.128 115.712v548.864q0 67.584 48.128 115.712t116.736 49.152h547.84q68.608 0 116.736-49.152t48.128-115.712z" />
<glyph unicode="&#xe82d;" glyph-name="vine" horiz-adv-x="878" d="M855.040 487.936v-113.664q-57.344-13.312-112.64-13.312-36.864-77.824-94.208-154.624t-104.448-122.88-72.704-61.44q-46.080-25.6-93.184 2.048-15.36 9.216-33.792 24.576t-49.152 48.128-58.368 73.728-61.44 104.448-60.416 139.264-52.224 180.224-39.936 222.208h161.792q14.336-123.904 39.936-227.328t59.392-181.248 69.632-134.144 79.872-111.616q96.256 96.256 163.84 232.448-80.896 40.96-126.976 124.928t-46.080 190.464q0 109.568 59.392 180.224t161.792 69.632q101.376 0 155.648-60.416t54.272-169.984q0-91.136-32.768-162.816-4.096-1.024-11.264-2.048t-26.624-1.024-35.84 3.072-34.816 14.336-28.672 29.696q17.408 59.392 17.408 105.472 0 49.152-16.384 74.752t-45.056 25.6q-30.72 0-49.152-27.648t-18.432-80.896q0-105.472 60.416-166.912t152.576-61.44q34.816 0 68.608 8.192z" />
<glyph unicode="&#xe82e;" glyph-name="wordpress" d="M72.704 448q0 93.184 37.888 179.2l209.92-574.464q-111.616 54.272-180.224 160.768t-67.584 234.496zM808.96 470.528q0-11.264-2.048-22.528t-5.12-27.648-7.168-25.6-10.24-33.792-9.216-32.768l-44.032-146.432-158.72 472.064q26.624 2.048 50.176 4.096 11.264 1.024 15.36 11.264t-2.048 17.408-16.384 8.192l-116.736-6.144q-43.008 0-115.712 6.144-6.144 0-11.264-3.072t-6.144-9.216-1.024-10.24 5.12-9.216 11.264-5.12l45.056-4.096 68.608-187.392-96.256-287.744-159.744 475.136q26.624 2.048 50.176 4.096 11.264 1.024 15.36 11.264t-2.048 17.408-15.36 8.192l-117.76-6.144q-4.096 0-13.312 0t-14.336 0q59.392 92.16 156.672 145.408t209.92 53.248q83.968 0 160.768-29.696t136.192-86.016h-6.144q-31.744 0-52.224-22.528t-21.504-54.272q0-7.168 1.024-14.336t2.048-12.288 5.12-13.312 5.12-11.264 7.168-13.312 7.168-12.288 8.192-13.312 7.168-13.312q36.864-61.44 36.864-120.832zM519.168 410.112l136.192-369.664q0-4.096 2.048-7.168-71.68-24.576-145.408-24.576-63.488 0-123.904 18.432zM897.024 658.944q54.272-99.328 54.272-210.944 0-119.808-59.392-220.16t-159.744-159.744l135.168 388.096q32.768 96.256 32.768 157.696 0 23.552-3.072 45.056zM512 960q104.448 0 198.656-40.96t163.84-108.544 108.544-163.84 40.96-198.656-40.96-198.656-108.544-163.84-163.84-108.544-198.656-40.96-198.656 40.96-163.84 108.544-108.544 163.84-40.96 198.656 40.96 198.656 108.544 163.84 163.84 108.544 198.656 40.96zM512-40.448q99.328 0 189.44 38.912t155.648 104.448 104.448 155.648 38.912 189.44-38.912 189.44-104.448 155.648-155.648 104.448-189.44 38.912-189.44-38.912-155.648-104.448-104.448-155.648-38.912-189.44 38.912-189.44 104.448-155.648 155.648-104.448 189.44-38.912z" />
<glyph unicode="&#xe82f;" glyph-name="youtube" horiz-adv-x="878" d="M555.008 249.344v-120.832q0-37.888-22.528-37.888-13.312 0-25.6 12.288v172.032q12.288 12.288 25.6 12.288 22.528 0 22.528-37.888zM747.52 248.32v-25.6h-51.2v25.6q0 38.912 25.6 38.912t25.6-38.912zM195.584 373.248h61.44v53.248h-178.176v-53.248h60.416v-325.632h56.32v325.632zM360.448 47.616h51.2v282.624h-51.2v-216.064q-17.408-23.552-32.768-23.552-10.24 0-11.264 11.264-1.024 2.048-1.024 20.48v207.872h-51.2v-223.232q0-28.672 5.12-41.984 7.168-21.504 32.768-21.504 27.648 0 58.368 34.816v-30.72zM606.208 132.608v112.64q0 41.984-5.12 56.32-10.24 31.744-40.96 31.744-28.672 0-53.248-30.72v123.904h-51.2v-378.88h51.2v27.648q25.6-31.744 53.248-31.744 30.72 0 40.96 31.744 5.12 15.36 5.12 57.344zM798.72 138.752v7.168h-52.224q0-29.696-1.024-34.816-4.096-20.48-22.528-20.48-26.624 0-26.624 38.912v50.176h102.4v58.368q0 45.056-15.36 66.56-22.528 28.672-60.416 28.672-38.912 0-61.44-28.672-15.36-21.504-15.36-66.56v-98.304q0-45.056 16.384-66.56 22.528-29.696 61.44-29.696 40.96 0 61.44 30.72 10.24 15.36 12.288 30.72 1.024 5.12 1.024 33.792zM451.584 659.968v119.808q0 39.936-24.576 39.936t-24.576-39.936v-119.808q0-39.936 24.576-39.936t24.576 39.936zM862.208 230.912q0-134.144-14.336-199.68-8.192-33.792-33.792-57.344t-58.368-25.6q-104.448-12.288-316.416-12.288t-317.44 12.288q-32.768 3.072-58.368 25.6t-32.768 57.344q-15.36 63.488-15.36 199.68 0 134.144 15.36 199.68 7.168 33.792 32.768 57.344t58.368 26.624q105.472 11.264 317.44 11.264t316.416-11.264q33.792-4.096 58.368-26.624t33.792-57.344q14.336-63.488 14.336-199.68zM291.84 960h58.368l-68.608-228.352v-154.624h-57.344v154.624q-8.192 43.008-34.816 121.856-21.504 58.368-37.888 106.496h61.44l39.936-150.528zM503.808 769.536v-99.328q0-47.104-16.384-67.584-21.504-29.696-60.416-29.696t-60.416 29.696q-15.36 21.504-15.36 67.584v99.328q0 46.080 15.36 66.56 21.504 29.696 60.416 29.696t60.416-29.696q16.384-20.48 16.384-66.56zM695.296 862.72v-285.696h-52.224v31.744q-30.72-35.84-59.392-35.84-25.6 0-33.792 21.504-4.096 13.312-4.096 43.008v225.28h52.224v-209.92q0-19.456 0-20.48 2.048-12.288 12.288-12.288 15.36 0 32.768 24.576v218.112h52.224z" />
<glyph unicode="&#xe830;" glyph-name="youtube-squared" horiz-adv-x="878" d="M525.312 215.552v90.112q0 27.648-16.384 27.648-10.24 0-19.456-9.216v-128q9.216-8.192 19.456-8.192 16.384 0 16.384 27.648zM630.784 285.184h36.864v19.456q0 28.672-18.432 28.672t-18.432-28.672v-19.456zM304.128 436.736v-39.936h-46.080v-241.664h-41.984v241.664h-45.056v39.936h133.12zM418.816 365.056v-209.92h-37.888v23.552q-22.528-25.6-44.032-25.6-18.432 0-23.552 15.36-4.096 9.216-4.096 30.72v165.888h37.888v-154.624q0-13.312 1.024-14.336 0-8.192 8.192-8.192 11.264 0 24.576 17.408v159.744h37.888zM563.2 301.568v-82.944q0-29.696-4.096-41.984-7.168-23.552-30.72-23.552-19.456 0-38.912 22.528v-20.48h-37.888v281.6h37.888v-91.136q18.432 22.528 38.912 22.528 23.552 0 30.72-24.576 4.096-11.264 4.096-41.984zM706.56 227.84v-5.12q0-16.384-1.024-24.576-2.048-12.288-9.216-22.528-15.36-22.528-45.056-22.528t-47.104 21.504q-11.264 15.36-11.264 49.152v73.728q0 33.792 11.264 49.152 16.384 21.504 45.056 21.504t45.056-21.504q12.288-16.384 12.288-49.152v-44.032h-75.776v-36.864q0-28.672 18.432-28.672 14.336 0 17.408 14.336 0 1.024 1.024 4.096t0 9.216v12.288h38.912zM448.512 698.88v-89.088q0-29.696-18.432-29.696t-18.432 29.696v89.088q0 29.696 18.432 29.696t18.432-29.696zM752.64 291.328q0 101.376-10.24 148.48-6.144 25.6-24.576 41.984t-44.032 19.456q-76.8 9.216-234.496 9.216t-235.52-9.216q-24.576-2.048-43.008-19.456t-24.576-41.984q-11.264-49.152-11.264-148.48 0-100.352 11.264-148.48 5.12-24.576 24.576-41.984t43.008-19.456q77.824-9.216 235.52-9.216t234.496 9.216q24.576 2.048 44.032 19.456t23.552 41.984q11.264 48.128 11.264 148.48zM321.536 663.040l51.2 169.984h-41.984l-29.696-111.616-29.696 111.616h-45.056l13.312-39.936t13.312-38.912q20.48-59.392 26.624-91.136v-114.688h41.984v114.688zM486.4 616.96v74.752q0 32.768-11.264 49.152-16.384 21.504-45.056 21.504t-44.032-21.504q-12.288-16.384-12.288-49.152v-74.752q0-32.768 12.288-49.152 15.36-22.528 44.032-22.528t45.056 22.528q11.264 15.36 11.264 49.152zM589.824 548.352h38.912v211.968h-38.912v-161.792q-12.288-18.432-23.552-18.432-8.192 0-9.216 9.216 0 2.048 0 15.36v155.648h-38.912v-167.936q0-20.48 4.096-30.72 6.144-16.384 23.552-16.384 21.504 0 44.032 26.624v-23.552zM877.568 722.432v-548.864q0-67.584-48.128-115.712t-116.736-49.152h-547.84q-68.608 0-116.736 49.152t-48.128 115.712v548.864q0 67.584 48.128 115.712t116.736 49.152h547.84q68.608 0 116.736-49.152t48.128-115.712z" />
<glyph unicode="&#xe831;" glyph-name="itunes" d="M0 448q0 139.264 68.608 257.024t186.368 186.368 257.024 68.608 257.024-68.608 186.368-186.368 68.608-257.024-68.608-257.024-186.368-186.368-257.024-68.608-257.024 68.608-186.368 186.368-68.608 257.024zM102.4 448q0-169.984 119.808-289.792t289.792-119.808 289.792 119.808 119.808 289.792-119.808 289.792-289.792 119.808-289.792-119.808-119.808-289.792zM289.792 267.776q0-31.744 22.528-53.248t53.248-22.528q33.792 0 58.368 24.576t24.576 58.368v275.456l204.8 37.888v-212.992q-15.36 5.12-28.672 5.12-33.792 0-58.368-24.576t-24.576-58.368q0-31.744 21.504-53.248t53.248-22.528 57.344 23.552 25.6 55.296v403.456l-296.96-51.2v-307.2q-15.36 5.12-28.672 5.12-34.816 0-59.392-24.576t-24.576-58.368z" />
<glyph unicode="&#xe832;" glyph-name="steam" d="M904.192 627.2q0-57.344-40.96-98.304t-98.304-40.96-99.328 40.96-39.936 98.304 39.936 98.304 99.328 40.96 98.304-40.96 40.96-98.304zM463.872 203.264q0 59.392-41.984 101.376t-100.352 41.984q-15.36 0-30.72-4.096l59.392-23.552q44.032-17.408 62.464-61.44t0-86.016q-17.408-44.032-60.416-62.464t-87.040 0q-12.288 4.096-35.84 13.312t-34.816 14.336q18.432-34.816 52.224-55.296t74.752-20.48q59.392 0 100.352 40.96t41.984 101.376zM937.984 627.2q0 71.68-51.2 122.88t-122.88 51.2q-72.704 0-123.904-51.2t-51.2-122.88q0-72.704 51.2-123.904t123.904-51.2q71.68 0 122.88 51.2t51.2 123.904zM1024 627.2q0-108.544-76.8-184.32t-183.296-75.776l-249.856-182.272q-6.144-73.728-62.464-124.928t-130.048-51.2q-69.632 0-122.88 44.032t-67.584 109.568l-131.072 52.224v245.76l222.208-90.112q45.056 27.648 99.328 27.648 7.168 0 19.456-1.024l162.816 232.448q1.024 106.496 76.8 182.272t183.296 75.776 183.296-76.8 76.8-183.296z" />
<glyph unicode="&#xe833;" glyph-name="steam-squared" horiz-adv-x="878" d="M709.632 590.336q0 46.080-32.768 77.824t-77.824 32.768-77.824-32.768-32.768-77.824q0-46.080 32.768-77.824t77.824-32.768 77.824 32.768 32.768 77.824zM361.472 254.464q0-47.104-33.792-80.896t-79.872-32.768q-31.744 0-58.368 17.408t-40.96 44.032q29.696-12.288 55.296-23.552 34.816-13.312 68.608 1.024t49.152 49.152q13.312 34.816-1.024 68.608t-49.152 48.128l-47.104 19.456q12.288 2.048 23.552 2.048 47.104 0 79.872-32.768t33.792-79.872zM877.568 722.432v-548.864q0-67.584-48.128-115.712t-116.736-49.152h-547.84q-68.608 0-116.736 49.152t-48.128 115.712v88.064l98.304-39.936q11.264-52.224 53.248-87.040t96.256-33.792q59.392 0 103.424 39.936t50.176 98.304l196.608 144.384q86.016 0 146.432 60.416t60.416 145.408q0 86.016-60.416 145.408t-146.432 60.416q-83.968 0-144.384-59.392t-61.44-144.384l-128-184.32q-5.12 1.024-16.384 1.024-43.008 0-77.824-21.504l-169.984 68.608v267.264q0 67.584 48.128 115.712t116.736 49.152h547.84q68.608 0 116.736-49.152t48.128-115.712zM736.256 589.312q0-57.344-39.936-97.28t-98.304-40.96-97.28 40.96-39.936 97.28 39.936 97.28 97.28 40.96q58.368 0 98.304-39.936t39.936-98.304z" />
<glyph unicode="&#xe834;" glyph-name="behance2" horiz-adv-x="1169" d="M1055.744 766.464h-291.84v-70.656h291.84v70.656zM912.384 522.752q-52.224 0-83.968-29.696t-34.816-81.92h232.448q-10.24 111.616-113.664 111.616zM921.6 188.928q35.84 0 69.632 18.432t43.008 49.152h125.952q-56.32-175.104-243.712-175.104-121.856 0-194.56 74.752t-72.704 198.656q0 118.784 74.752 197.632t192.512 78.848q78.848 0 137.216-38.912t88.064-102.4 28.672-142.336q0-9.216-1.024-26.624h-375.808q0-63.488 32.768-98.304t95.232-33.792zM158.72 217.6h168.96q116.736 0 116.736 95.232 0 102.4-113.664 102.4h-172.032v-197.632zM158.72 523.776h159.744q45.056 0 70.656 21.504t26.624 64.512q0 81.92-108.544 81.92h-148.48v-167.936zM0 814.592h339.968q49.152 0 88.064-8.192t72.704-26.624 51.2-55.296 17.408-88.064q0-103.424-98.304-150.528 65.536-17.408 98.304-65.536t33.792-116.736q0-41.984-14.336-77.824t-37.888-59.392-56.32-39.936-68.608-24.576-76.8-7.168h-349.184v719.872z" />
<glyph unicode="&#xe835;" glyph-name="behance-squared" horiz-adv-x="878" d="M712.704 887.296q68.608 0 116.736-49.152t48.128-115.712v-548.864q0-67.584-48.128-115.712t-116.736-49.152h-547.84q-68.608 0-116.736 49.152t-48.128 115.712v548.864q0 67.584 48.128 115.712t116.736 49.152h547.84zM284.672 677.376h-211.968v-449.536h219.136q66.56 0 112.64 32.768t45.056 97.28q0 90.112-81.92 113.664 61.44 29.696 61.44 94.208 0 32.768-11.264 55.296t-31.744 34.816-45.056 16.384-56.32 5.12zM272.384 495.104h-100.352v105.472h93.184q67.584 0 67.584-51.2 0-54.272-60.416-54.272zM277.504 303.616h-105.472v123.904h107.52q71.68 0 71.68-64.512 0-59.392-73.728-59.392zM649.216 286.208q-38.912 0-59.392 21.504t-20.48 60.416h234.496q1.024 6.144 1.024 17.408 0 75.776-43.008 125.952t-115.712 51.2q-73.728 0-120.832-49.152t-46.080-123.904q0-76.8 45.056-123.904t121.856-47.104q116.736 0 152.576 109.568h-78.848q-7.168-19.456-27.648-30.72t-43.008-11.264zM643.072 495.104q64.512 0 71.68-69.632h-145.408q2.048 31.744 22.528 50.176t51.2 19.456zM550.912 646.656h182.272v-44.032h-182.272v44.032z" />
<glyph unicode="&#xe836;" glyph-name="yelp" horiz-adv-x="878" d="M441.344 206.336v-72.704q0-166.912-3.072-174.080-7.168-18.432-28.672-22.528-31.744-6.144-104.448 21.504t-92.16 50.176q-8.192 9.216-10.24 20.48 0 7.168 2.048 15.36 3.072 6.144 19.456 26.624t103.424 123.904q1.024 0 34.816 39.936 8.192 10.24 22.528 14.336t27.648-2.048q14.336-6.144 21.504-17.408t7.168-23.552zM356.352 349.696q-1.024-31.744-29.696-39.936l-68.608-22.528q-156.672-50.176-166.912-50.176-19.456 1.024-30.72 20.48-6.144 14.336-9.216 43.008-5.12 43.008 0 95.232t17.408 70.656 31.744 18.432q8.192 0 115.712-44.032 39.936-16.384 65.536-26.624l48.128-19.456q13.312-5.12 20.48-17.408t6.144-27.648zM828.416 179.712q-4.096-30.72-52.224-92.16t-77.824-71.68q-20.48-8.192-35.84 3.072-7.168 6.144-104.448 164.864l-27.648 44.032q-7.168 11.264-6.144 25.6t11.264 26.624q19.456 24.576 47.104 14.336 1.024 0 68.608-22.528 115.712-37.888 138.24-45.056t26.624-12.288q15.36-12.288 12.288-34.816zM444.416 541.184q3.072-58.368-30.72-69.632-32.768-10.24-65.536 40.96l-215.040 340.992q-5.12 20.48 10.24 35.84 23.552 24.576 118.784 51.2t128 17.408q22.528-5.12 28.672-25.6 1.024-10.24 12.288-174.080t13.312-217.088zM823.296 479.744q1.024-22.528-15.36-33.792-8.192-6.144-188.416-49.152-37.888-9.216-51.2-13.312v1.024q-13.312-3.072-25.6 2.048t-21.504 18.432q-17.408 26.624 0 50.176 1.024 0 43.008 58.368 71.68 97.28 84.992 115.712t19.456 22.528q16.384 11.264 37.888 1.024 27.648-12.288 69.632-75.776t47.104-96.256v-1.024z" />
<glyph unicode="&#xe837;" glyph-name="twitch" d="M512 712.192v-247.808h-82.944v247.808h82.944zM739.328 712.192v-247.808h-82.944v247.808h82.944zM739.328 278.016l144.384 144.384v454.656h-681.984v-599.040h186.368v-123.904l123.904 123.904h227.328zM966.656 960v-578.56l-247.808-247.808h-186.368l-123.904-124.928h-123.904v124.928h-227.328v661.504l62.464 164.864h846.848z" />
<glyph unicode="&#xe838;" glyph-name="500px" horiz-adv-x="817" d="M800.571 66.857l-3.429-3.429q-64.571-65.143-148-100-88-36.571-181.143-36.571-94.286 0-181.143 36.571-84.571 36-148 100-64.571 64-100 147.429-24 58.857-30.857 108-2.286 16 27.429 20.571 29.143 4.571 32-11.429 0.571-0.571 0.571-2.286 10.286-51.429 26.286-90.857 28.571-70.857 86.857-129.143 56-56 129.143-86.857 75.429-32 157.714-32 81.714 0 157.714 32 73.143 31.429 128.571 86.857l3.429 3.429q5.714 5.714 14.286 3.429 6.857-1.714 18.857-12.571 20.571-21.143 9.714-33.143zM530.857 418.286l-37.714-37.714 36-36q12-12-4-28-9.714-9.714-18.286-9.714-5.714 0-10.857 5.714l-35.429 34.857-37.714-37.714q-2.857-2.857-8.571-2.857-8.571 0-17.714 9.143l-1.143 1.143q-10.286 8.571-10.286 16.571 0 4 4.571 9.714l37.714 37.143-37.714 37.714q-9.143 9.143 8 25.714 10.286 10.286 17.714 10.286 3.429 0 7.429-2.857l37.143-37.714 37.143 37.143q10.286 9.714 27.429-7.429 15.429-15.429 6.286-25.143zM800 385.714q0-67.429-26.286-130.286-25.714-60-72-106.286-45.714-45.714-106.857-72t-130.286-26.286-130.286 26.286-106.857 72q-46.857 46.857-71.429 106.286-8.571 18.286-8.571 22.857h-0.571q-5.143 15.429 24.571 25.143 28.571 9.143 34.286-6.857 21.143-56.571 55.429-95.429h0.571v194.857q1.714 77.714 58.286 132.571 60 58.857 144.571 58.857 84 0 143.429-58.857t59.429-142.286q0-84-59.714-143.429t-143.143-59.429q-33.143 0-64 9.143-16 6.286-7.429 34.857 9.143 29.143 25.143 24.571l8-1.714q8-1.714 18.571-3.429t17.429-1.714q59.429 0 100.571 40.857t41.143 99.714q0 57.714-41.143 97.714-40.571 40.571-100 40.571-61.143 0-101.714-45.714-36.571-41.143-36.571-91.429v-236q62.857-38.286 138.286-38.286 54.857 0 105.714 20.857t89.143 59.143 59.143 88.571 20.857 104.571q0 113.143-80.571 193.714-80 80-193.714 80-114.286 0-194.286-80-30.286-30.286-44-49.714l-1.143-1.143q-4.571-6.286-7.429-8.857t-12.286-5.429-22 1.714q-12 2.857-20.857 9.429t-8.857 15.143v388.571q0 8.571 6 15.143t15.714 6.571h501.143q17.143 0 17.143-31.429t-17.143-31.429h-463.429v-276h0.571q22.857 24 58.286 48t61.714 34.857q62.286 26.286 132 26.286 69.143 0 130.286-26.286t106.857-72q46.286-46.286 72-106.286 26.286-64 26.286-130.857zM782.286 717.714q5.143-4.571 5.143-10.286t-3.143-10.286-9.429-12q-14.857-14.857-22.286-14.857-5.143 0-9.143 4-60.571 52-118.286 76-73.143 32-157.714 32-76 0-149.714-28-15.429-5.714-25.714 21.143-5.143 14.286-4.571 21.714 1.714 9.143 9.143 11.429 74.286 32.571 170.857 32.571 93.714 0 180.571-36.571 78.286-33.143 134.286-86.857z" />
<glyph unicode="&#xe839;" glyph-name="angellist" horiz-adv-x="731" d="M544.768 743.936l-65.536-187.392 66.56-12.288q95.232 258.048 95.232 295.936 0 32.768-22.528 32.768-31.744 0-73.728-129.024zM373.76 351.744l18.432-50.176q21.504 23.552 40.96 37.888l-18.432 3.072t-22.528 4.096-18.432 5.12zM206.848 863.744q0-56.32 91.136-297.984 10.24 6.144 27.648 6.144 8.192 0 43.008-3.072l-69.632 200.704q-41.984 124.928-69.632 124.928-11.264 0-16.384-9.216t-6.144-21.504zM161.792 429.568q0-20.48 29.696-67.584t66.56-88.064 57.344-39.936q8.192 0 14.336 8.192t7.168 15.36q0 13.312-18.432 58.368-7.168 17.408-18.432 40.96t-27.648 50.176-34.816 47.104-34.816 17.408q-12.288 0-26.624-15.36t-14.336-26.624zM71.68 238.080q0-23.552 14.336-59.392 33.792-82.944 104.448-130.048t160.768-46.080q130.048 0 218.112 97.28 87.040 96.256 87.040 243.712 0 24.576 0 37.888t-7.168 35.84-17.408 31.744q-31.744 27.648-120.832 43.008t-154.624 15.36q-20.48 0-27.648-6.144-7.168-3.072-7.168-20.48 0-19.456 12.288-33.792t31.744-22.528 44.032-14.336 50.176-6.144 49.152-2.048 39.936 0h13.312q13.312 0 22.528-11.264 8.192-10.24 10.24-30.72-15.36-16.384-54.272-31.744-34.816-12.288-53.248-25.6-36.864-26.624-62.464-65.536t-24.576-77.824q0-18.432 10.24-51.2t10.24-50.176l-1.024-6.144q-3.072-7.168-3.072-8.192-77.824 5.12-82.944 122.88-5.12-1.024-23.552-1.024 1.024-4.096 1.024-11.264 0-30.72-22.528-51.2t-54.272-21.504q-47.104 0-95.232 45.056t-48.128 91.136q0 19.456 18.432 37.888 29.696-36.864 34.816-43.008 44.032-59.392 75.776-59.392 7.168 0 15.36 4.096t8.192 12.288q0 19.456-50.176 82.944t-66.56 63.488q-24.576 0-39.936-25.6t-15.36-52.224zM6.144 232.96q0 58.368 24.576 93.184t77.824 50.176q-16.384 43.008-16.384 59.392 0 35.84 34.816 70.656t70.656 34.816q16.384 0 39.936-8.192-93.184 263.168-93.184 323.584 0 46.080 23.552 74.752t67.584 28.672q74.752 0 185.344-331.776 4.096-10.24 5.12-13.312 3.072 9.216 16.384 45.056t24.576 67.584 30.72 73.728 36.864 69.632 40.96 49.152 43.008 21.504q40.96 0 64.512-28.672t23.552-69.632q0-61.44-91.136-314.368 34.816-8.192 57.344-25.6t33.792-45.056 14.336-53.248 4.096-63.488q0-84.992-26.624-159.744t-75.776-129.024-119.808-84.992-159.744-31.744q-63.488 0-126.976 23.552-84.992 32.768-147.456 109.568t-62.464 163.84z" />
<glyph unicode="&#xe83a;" glyph-name="b_bg" d="M507.904 410.112h-126.976v-104.448h126.976c36.864 0 58.368 19.456 58.368 52.224 1.024 28.672-20.48 52.224-58.368 52.224zM558.080 544.256c0 28.672-21.504 48.128-54.272 48.128h-122.88v-96.256h122.88c32.768 0 54.272 18.432 54.272 48.128zM-1.024 961.024v-1024h1024v1024h-1024zM533.504 218.624h-250.88v460.8h242.688c88.064 0 133.12-56.32 133.12-117.76 0-57.344-35.84-96.256-79.872-105.472 50.176-7.168 88.064-55.296 88.064-112.64 0-69.632-45.056-124.928-133.12-124.928zM778.24 479.744l-37.888 30.72c21.504 12.288 47.104 40.96 52.224 65.536-1.024-1.024-7.168-2.048-12.288-2.048-26.624 0-47.104 20.48-47.104 50.176s24.576 54.272 54.272 54.272c32.768 0 61.44-25.6 61.44-70.656 0-51.2-28.672-98.304-70.656-128z" />
<glyph unicode="&#xe83b;" glyph-name="b" horiz-adv-x="1260" d="M657.408 464.384c97.28 19.456 177.152 106.496 177.152 234.496 0 137.216-100.352 261.12-294.912 261.12h-539.648v-1024h557.056c196.608 0 297.984 122.88 297.984 277.504-1.024 128-87.040 233.472-197.632 250.88zM218.112 768.512h273.408c73.728 0 119.808-45.056 119.808-107.52 0-65.536-46.080-107.52-119.808-107.52h-273.408v215.040zM500.736 127.488h-282.624v233.472h282.624c84.992 0 131.072-52.224 131.072-116.736 0-72.704-49.152-116.736-131.072-116.736zM1123.328 957.952c-65.536 0-121.856-55.296-121.856-120.832s47.104-110.592 104.448-110.592c13.312 0 24.576 2.048 29.696 5.12-12.288-55.296-68.608-119.808-117.76-146.432l83.968-68.608c95.232 66.56 157.696 169.984 157.696 284.672 0 100.352-64.512 156.672-136.192 156.672z" />
<glyph unicode="&#xe83c;" glyph-name="paper-plane" d="M1007.616 953.856q19.456-14.336 15.36-36.864l-145.408-877.568q-3.072-16.384-18.432-25.6-8.192-5.12-18.432-5.12-6.144 0-13.312 3.072l-259.072 105.472-138.24-167.936q-10.24-13.312-27.648-13.312-7.168 0-12.288 2.048-11.264 4.096-17.408 13.312t-7.168 21.504v199.68l493.568 604.16-610.304-528.384-226.304 93.184q-20.48 7.168-22.528 30.72-1.024 23.552 18.432 33.792l950.272 548.864q9.216 5.12 18.432 5.12 11.264 0 20.48-6.144z" />
<glyph unicode="&#xe83d;" glyph-name="vkontakte" horiz-adv-x="1097" d="M1095.68 663.040q13.312-36.864-86.016-167.936-13.312-18.432-36.864-49.152-45.056-56.32-51.2-74.752-10.24-23.552 7.168-46.080 10.24-12.288 47.104-47.104v0h1.024v-1.024l1.024-1.024q80.896-74.752 109.568-125.952 2.048-3.072 4.096-7.168t3.072-15.36 0-19.456-14.336-15.36-33.792-7.168l-146.432-3.072q-13.312-2.048-31.744 3.072t-29.696 13.312l-11.264 6.144q-17.408 12.288-39.936 36.864t-38.912 44.032-34.816 33.792-32.768 8.192q-1.024 0-4.096-2.048t-10.24-8.192-12.288-16.384-9.216-29.696-4.096-45.056q0-8.192-2.048-15.36t-4.096-10.24l-2.048-3.072q-10.24-11.264-30.72-12.288h-65.536q-40.96-3.072-82.944 9.216t-75.776 29.696-58.368 37.888-40.96 32.768l-14.336 14.336q-5.12 5.12-15.36 17.408t-40.96 51.2-60.416 87.040-69.632 119.808-74.752 155.648q-4.096 9.216-4.096 15.36t2.048 9.216l2.048 3.072q9.216 11.264 32.768 11.264l156.672 1.024q7.168-1.024 13.312-4.096t9.216-4.096l3.072-2.048q9.216-6.144 13.312-18.432 11.264-28.672 26.624-59.392t23.552-46.080l9.216-16.384q16.384-34.816 31.744-59.392t27.648-38.912 23.552-22.528 19.456-8.192 15.36 3.072q1.024 1.024 3.072 3.072t7.168 12.288 7.168 26.624 5.12 47.104 0 70.656q-1.024 23.552-5.12 41.984t-7.168 26.624l-4.096 6.144q-14.336 19.456-48.128 24.576-8.192 2.048 3.072 14.336 9.216 10.24 21.504 17.408 29.696 14.336 136.192 13.312 47.104-1.024 76.8-7.168 12.288-3.072 19.456-8.192t12.288-13.312 5.12-18.432 2.048-26.624 0-30.72-2.048-40.96 0-47.104q0-6.144-1.024-23.552t0-27.648 2.048-22.528 6.144-22.528 13.312-14.336q4.096-1.024 9.216-2.048t15.36 6.144 21.504 19.456 29.696 38.912 38.912 61.44q33.792 59.392 61.44 128 2.048 6.144 5.12 10.24t6.144 6.144l2.048 2.048 3.072 1.024t8.192 2.048 11.264 0l163.84 1.024q22.528 3.072 36.864-1.024t17.408-10.24z" />
<glyph unicode="&#xe83e;" glyph-name="bitbucket" horiz-adv-x="804" d="M465.92 469.504q4.096-35.84-28.672-58.368t-64.512-3.072q-21.504 9.216-29.696 32.768t-1.024 47.104 29.696 32.768q20.48 10.24 41.984 7.168t35.84-20.48 16.384-37.888zM529.408 480.768q-8.192 61.44-64.512 94.208t-112.64 7.168q-35.84-15.36-57.344-50.176t-20.48-73.728q3.072-52.224 45.056-89.088t94.208-31.744q52.224 4.096 87.040 48.128t28.672 95.232zM665.6 791.040q-11.264 15.36-31.744 25.6t-32.768 12.288-40.96 7.168q-165.888 26.624-323.584-1.024-24.576-4.096-37.888-7.168t-30.72-12.288-28.672-24.576q16.384-16.384 43.008-26.624t41.984-12.288 50.176-6.144q130.048-16.384 256-1.024 35.84 5.12 51.2 7.168t40.96 12.288 43.008 26.624zM698.368 199.168q-5.12-14.336-9.216-43.008t-8.192-48.128-15.36-39.936-33.792-32.768q-49.152-27.648-108.544-40.96t-114.688-12.288-115.712 10.24q-25.6 5.12-46.080 10.24t-44.032 15.36-41.984 25.6-29.696 34.816q-14.336 55.296-31.744 166.912l3.072 9.216 10.24 5.12q126.976-84.992 289.792-84.992t289.792 84.992q12.288-3.072 13.312-13.312t-3.072-25.6-4.096-21.504zM801.792 749.056q-15.36-96.256-63.488-374.784-3.072-17.408-15.36-31.744t-24.576-23.552-31.744-17.408q-143.36-71.68-348.16-50.176-142.336 15.36-225.28 79.872-8.192 6.144-14.336 14.336t-10.24 20.48-5.12 19.456-3.072 22.528-3.072 19.456q-5.12 28.672-15.36 86.016t-16.384 92.16-13.312 84.992-12.288 90.112q2.048 14.336 10.24 27.648t17.408 21.504 26.624 17.408 25.6 12.288 27.648 10.24q71.68 26.624 179.2 36.864 216.064 21.504 386.048-28.672 88.064-25.6 122.88-69.632 9.216-11.264 9.216-28.672t-3.072-30.72z" />
<glyph unicode="&#xe83f;" glyph-name="bandcamp" d="M0 148.992h710.656l313.344 598.016h-683.008z" />
<glyph unicode="&#xe840;" glyph-name="xing" horiz-adv-x="804" d="M340.992 579.072q-5.12-10.24-146.432-261.12-15.36-25.6-37.888-25.6h-136.192q-12.288 0-17.408 9.216t0 20.48l144.384 256q1.024 0 0 1.024l-92.16 158.72q-7.168 13.312 0 21.504 5.12 8.192 17.408 8.192h137.216q22.528 0 37.888-25.6zM801.792 945.664q6.144-9.216 0-21.504l-302.080-533.504 192.512-352.256q6.144-11.264 0-20.48-5.12-9.216-18.432-9.216h-136.192q-23.552 0-37.888 25.6l-193.536 356.352q10.24 18.432 303.104 537.6 14.336 25.6 36.864 25.6h138.24q12.288 0 17.408-8.192z" />
<glyph unicode="&#xe841;" glyph-name="yahoo" d="M568.2 371v0c112.6 197.6 298.6 520 349.6 589-22.4-15-56.8-22.6-88.4-29.8l-47.8 29.8c-38.4-71.6-180-303-270.2-451.2-91.4 151.4-199.6 326.2-270.2 451.2-56-12-79.2-12.6-135 0v0 0c0 0 0 0 0 0v0c110.8-166.8 288.2-484.6 348.6-589v0l-8.2-435 64.8 29.8v0.8l64.8-30.6-8 435z" />
<glyph unicode="&#xe842;" glyph-name="snapchat-ghost" horiz-adv-x="951" d="M484.571 877.714q76.571 0.571 137.429-39.143t93.429-110q15.429-33.143 15.429-102.286 0-26.857-5.143-109.143 8-4 16-4 10.286 0 29.143 7.714t29.143 7.714q16.571 0 32-10.286t15.429-26.286q0-18.286-18-30.857t-39.429-18-39.429-16.571-18-27.143q0-8.571 6.857-24.571 21.143-46.857 58.571-85.714t82.571-57.714q16-6.857 45.714-13.143 16-3.429 16-20 0-40-125.143-58.857-4-6.286-6.286-22.286t-8-26.571-18.857-10.571q-11.429 0-35.429 3.714t-36.571 3.714q-21.143 0-35.429-2.857-18.286-2.857-36-12.857t-33.143-21.714-33.143-23.143-43.429-19.143-56.571-7.714q-29.714 0-55.143 7.714t-42.857 19.143-32.857 23.143-33.143 21.714-35.429 12.857q-14.857 2.857-36 2.857-13.714 0-37.429-4.286t-33.429-4.286q-14.286 0-20 10.571t-8 27.143-6.286 22.857q-125.143 18.857-125.143 58.857 0 16.571 16 20 29.714 6.286 45.714 13.143 44.571 18.286 82.571 57.714t58.571 85.714q6.857 16 6.857 24.571 0 16-18 27.143t-39.714 16.857-39.714 18-18 30q0 15.429 14.857 26t31.429 10.571q8.571 0 27.429-7.429t30.286-7.429q10.286 0 18.286 4-5.143 81.143-5.143 108.571 0 69.714 15.429 102.857 36.571 78.286 98.286 113.143t150.857 36z" />
<glyph unicode="&#xe843;" glyph-name="snapchat-square" horiz-adv-x="878" d="M731.429 294.857q0 12.571-12.571 15.429-38.286 8-67.429 33.143t-45.714 62.286q-4 8-4 14.286 0 8.571 11.143 14.857t24.286 9.714 24.286 11.714 11.143 20.857q0 10.857-10.571 18t-22 7.143q-6.286 0-17.714-4.571t-18.286-4.571q-2.286 0-6.857 1.143 2.857 36 2.857 65.714 0 44.571-9.714 65.143-20.571 44.571-58.571 69.429t-87.143 24.857q-113.143 0-157.143-94.286-10.286-21.714-10.286-65.714 0-21.714 3.429-65.143-5.714-1.143-8.571-1.143-6.286 0-18 4.571t-17.429 4.571q-11.429 0-21.429-7.143t-10-18.571q0-12 11.143-20.286t24.286-11.714 24.286-9.714 11.143-14.857q0-6.286-4-14.286-36.571-78.857-113.143-95.429-12.571-2.857-12.571-15.429 0-26.857 78.857-39.429 1.143-2.857 3.429-14.857t6.286-17.429 13.143-5.429q7.429 0 22 2.857t22 2.857q20 0 38.571-8.571t31.143-18.571 32.857-18.571 43.714-8.571q24.571 0 45.143 8.571t32.857 18.571 30.857 18.571 38.571 8.571q7.429 0 22.286-2.571t22.286-2.571q8.571 0 12.857 5.429t6.571 17.714 2.857 14q78.857 12.571 78.857 39.429zM877.714 713.143v-548.571q0-68-48.286-116.286t-116.286-48.286h-548.571q-68 0-116.286 48.286t-48.286 116.286v548.571q0 68 48.286 116.286t116.286 48.286h548.571q68 0 116.286-48.286t48.286-116.286z" />
<glyph unicode="&#xe844;" glyph-name="tripadvisor" horiz-adv-x="1317" d="M372 381.143q0-22.286-15.714-38t-37.429-15.714q-22.286 0-38 15.714t-15.714 38q0 21.714 15.714 37.429t38 15.714q21.714 0 37.429-15.714t15.714-37.429zM1031.429 381.714q0-22.286-15.714-38t-38-15.714-38 15.714-15.714 38 15.714 37.714 38 15.429 38-15.429 15.714-37.714zM437.143 381.143q0 45.143-32.286 77.714t-78 32.571-78-32.286-32.286-78 32.286-78 78-32.286 78 32.286 32.286 78zM1096 381.714q0 45.714-32.286 78t-78 32.286q-45.143 0-77.714-32.286t-32.571-78 32.286-78 78-32.286 78 32.286 32.286 78zM485.714 381.143q0-66.286-46.571-112.857t-112.286-46.571q-66.286 0-112.857 46.857t-46.571 112.571 46.857 112.286 112.571 46.571 112.286-46.571 46.571-112.286zM1145.143 381.714q0-65.714-46.571-112.286t-112.857-46.571q-65.714 0-112.286 46.571t-46.571 112.286 46.571 112.286 112.286 46.571q66.286 0 112.857-46.571t46.571-112.286zM594.286 380q0 109.143-77.429 186.571t-186.571 77.429q-71.429 0-132-35.429t-96-96.286-35.429-132.286 35.429-132.286 96-96.286 132-35.429q109.143 0 186.571 77.429t77.429 186.571zM976 707.428q-145.143 63.429-317.714 63.429-182.286 0-327.429-62.857 66.857 0 127.429-26t104.286-70 69.714-104.571 26-127.429q0 65.714 24.857 125.429t67.429 103.143 101.429 70.286 124 28.571zM1249.714 380q0 109.143-77.143 186.571t-186.286 77.429-186.571-77.429-77.429-186.571 77.429-186.571 186.571-77.429 186.286 77.429 77.143 186.571zM1097.714 703.428h218.857q-25.143-29.143-42.857-65.429t-22.857-65.429q62.857-86.286 62.857-192.571 0-89.143-44-164.571t-119.429-119.143-164-43.714q-76 0-142.286 32t-112 88.571q-26.857-32-73.714-102.286-6.286 12.571-30.571 47.143t-42.571 55.714q-45.714-56.571-112.286-88.857t-142.571-32.286q-88.571 0-164 43.714t-119.429 119.143-44 164.571q0 106.286 62.857 192.571-5.143 29.143-22.857 65.429t-42.857 65.429h208.571q85.143 57.143 202.857 89.429t246.857 32.286q128 0 240.571-32t198.857-89.714z" />
<glyph unicode="&#xe845;" glyph-name="houzz" horiz-adv-x="585" d="M292.571 270.286l292.571 168.571v-337.714l-292.571-169.143v338.286zM0 438.857v-337.714l292.571 169.143zM292.571 945.714v-337.714l-292.571-169.143v337.714zM292.571 608l292.571 168.571v-337.714z" />
<glyph unicode="&#xe846;" glyph-name="mixcloud" horiz-adv-x="1317" d="M940 323.428q0 33.714-19.429 60.857t-49.714 39.143q-4-25.714-13.143-52.571-4-13.714-15.714-21.714t-25.429-8q-6.857 0-13.714 1.714-17.714 5.714-25.714 22t-2.286 33.429q13.143 40.571 13.143 81.714 0 70.286-34.857 130t-94.857 94.571-130.286 34.857q-76.571 0-141.143-41.714t-95.429-110.857q61.714-16 107.429-60.571 12.571-13.143 12.571-31.429t-12.571-30.857-30.857-12.571-31.429 12.571q-42.857 42.857-102.857 42.857-60.571 0-103.429-42.571t-42.857-103.143 42.857-103.143 103.429-42.571h597.714q45.143 0 76.857 31.714t31.714 76.286zM1027.429 323.428q0-81.143-57.429-138.286t-138.571-57.143h-597.714q-96.571 0-165.143 68.286t-68.571 164.857q0 87.429 57.143 152.571t142.286 77.714q35.429 105.143 126.286 170.286t202.286 65.143q134.286 0 233.429-90.571t112.286-222.571q66.286-14.286 110-67.714t43.714-122.571zM1170.286 323.428q0-100-55.429-182.286-13.143-18.857-36.571-18.857-13.714 0-24.571 7.429-14.857 9.714-18.286 27.714t6.857 32.857q40.571 59.429 40.571 133.143t-40.571 133.143q-10.286 14.857-6.857 32.571t18.286 28 32.857 6.571 28.286-18.571q55.429-81.143 55.429-181.714zM1316.571 323.428q0-139.429-76.571-253.143-13.143-19.429-36.571-19.429-13.143 0-24 7.429-14.857 10.286-18.571 28t6.571 32.571q61.714 93.714 61.714 204.571 0 111.429-61.714 204-10.286 14.857-6.571 32.857t18.571 27.714q14.857 10.286 32.571 6.857t28-18.857q76.571-113.143 76.571-252.571z" />
<glyph unicode="&#xe847;" glyph-name="lastfm" d="M738.286 548.571q0-3.429 5.714-23.429 5.714-16.571 14.286-28.286t23.429-19.429 25.143-11.429 31.429-9.429q185.714-52 185.714-189.714 0-83.429-60.286-138.571t-145.429-55.143q-33.714 0-63.714 10.571t-52.286 26-44 42.571-36 50-30.571 59.143-24.857 58.857-22.571 60.857-20.286 54.286q-18.286 46.286-35.143 76.286t-42 55.143-59.429 36.571-81.143 11.429q-54.857 0-104.571-31.714t-78.857-82.571-29.143-105.714q0-91.429 60.857-159.714t150.571-68.286q101.143 0 147.429 54.286 32 36 47.429 66.286l48-86.857q-8.571-19.429-25.143-40l0.571-0.571q-74.857-86.857-221.714-86.857-84 0-154 45.143t-108.857 118.571-38.857 156.857q0 60 24.857 117.714t66.286 100.857 98.286 69.429 116.857 26.286q49.714 0 90.857-10.857t70.571-28.571 54.286-45.714 41.429-56.571 33.429-66.857 28.857-71.143 28.571-74.571 31.429-72.571q54.857-114.286 133.143-114.286 46.286 0 79.143 27.714t32.857 73.429q0 24-10.857 41.143t-28.857 26.286-41.429 18-48.286 15.429-50 19.429-46.286 29.714-37.143 46.857-22.286 70q-1.714 9.143-1.714 18.857 0 62.857 50 109.714t113.429 44.571q44.571-1.714 68.857-8.286t51.714-30.571h-0.571q6.857-6.286 13.143-14t14.857-20.571 10.857-15.714l-73.714-56.571q-14.857 28-30.857 40v0.571q-13.143 12-55.429 12-28 0-48-18.857t-20-47.429z" />
<glyph unicode="&#xe848;" glyph-name="lastfm-square" horiz-adv-x="878" d="M818.286 349.714q0 98.857-133.714 136.571-20 5.714-30.286 9.429t-21.714 14.286-16.571 26.571q0 1.143-1.143 4.857t-1.714 6.857-0.571 4.286q0 20.571 14 34t34.571 13.429q30.857 0 40.571-8.571h-0.571q11.429-8.571 22.286-29.143l53.143 40.571q-22.286 30.857-28 36.571-18.857 16.571-38.571 22.286t-48.857 5.714q-45.714 0-81.143-32.857t-35.429-78.571q0-4 1.143-13.143 9.143-54.857 36.857-80t84.857-41.714q16.571-4.571 28-8.857t25.714-12.286 22-19.714 7.714-26.571v-2.857q0.571-33.143-23.143-53.143t-57.429-20q-55.429 0-95.429 82.286-13.143 26.857-29.429 69.429t-27.429 71.714-30.857 63.143-42.286 54.571-59.143 34.571-84 14q-57.714 0-109.714-32t-82.286-84.571-28.571-109.714v-0.571q2.286-61.714 28.857-113.714t76.286-84.286 112-32.286q106.286 0 159.429 62.857 11.429 15.429 17.714 29.143l-34.286 62.286q-24-45.714-56.571-66.286t-83.429-20.571q-65.714 0-109.143 49.714t-43.429 116.571q0 60 46.857 108t106.286 48q64 0 97.143-30.571t59.429-98.571q4.571-12 14.571-39.143t16.286-43.714 18-42.571 22-42.286 26-35.714 31.714-30.571 37.714-18.857 45.714-7.714q61.143 0 104.571 39.714t43.429 99.714zM877.714 713.143v-548.571q0-68-48.286-116.286t-116.286-48.286h-548.571q-68 0-116.286 48.286t-48.286 116.286v548.571q0 68 48.286 116.286t116.286 48.286h548.571q68 0 116.286-48.286t48.286-116.286z" />
</font>
</defs>
</svg>
